img image001 image001 image001 image001 image001 image001 image001 image001 image001 image001 image001 image001 image001 image001 image001

Planets Sun Sun Sun
Статистика раздачи
Автор: PriZraK | Размер: 743.17 МБ | Добавлен: 15 фев 2014
Раздают: 2    Качают: 3
Скачать торрент
Скачать торрент
Описание торрента

СообщениеДобавлено: 15 фев 2014 

Шотландия. Край замков и вересковых пустошей



Год выпуска: 2009
Страна: Германия, Польша, Россия
Студия: Komplett-Media GmbH
Жанр: документальный
Продолжительность: 01:02:29

Перевод: Профессиональный (дикторский закадровый)
Субтитры: нет
Оригинальная аудиодорожка: нет

Описание:
Романтические пейзажи и вездесущая аура таинственности Шотландии когда-то вдохновляли поэтов и художников эпохи романтизма, а теперь очаровывают туристов. Мы начнем наше путешествие по этой восхитительной стране в Эдинбурге, который не случайно называют «Северными Афинами». Далее дорога ведет нас через залив Форт и поле битвы Баннокберн в безлюдный Троссакс и к самому большому озеру Шотландии — Лох-Ломонду. Пустынные вересковые поля, живописные горы и высящиеся на скалах средневековые замки — вот типичные картины Хайленда. Старинные кельтские легенды и песни о героических воинах оживают во время «Хайленд Гейме» — необычных спортивных состязании, в ходе которых местные силачи под аккомпанемент волынок соревнуются в таких дисциплинах, как кручение молота и перетягивание каната. В сердце Шотландии мы познакомимся с ее важнейшими символами: шотландской клеткой, волынками, клановыми традициями и игрой в гольф. Кроме того, мы шаг за шагом проследим за производством национального напитка — виски. В дальнейшем пути на север у нас будет возможность увидеть великолепные средневековые замки, с которыми связаны интригующие легенды. Квинтэссенция шотландской романтики — суровые пейзажи архипелага Гебриды, конечная цель нашего путешествия.





Исходник: DVD5 R5
Тип релиза: DVDRip
Контейнер: AVI

Видео: 720x544 (4:3), 25 fps, XviD ~ 1525 kbps avg, 0.156 bit/pixel
Аудио: 48 kHz, MP3 2.0, 128.00 kbps
Общее
Полное имя : Shotlandiya.Kray.zamkov.i.vereskovyh.pustoshey.2009.DVDRip-745_[Youtracker]_by_AVP Studio.avi
Формат : AVI
Формат/Информация : Audio Video Interleave
Размер файла : 743 Мбайт
Продолжительность : 1 ч. 2 м.
Общий поток : 1663 Кбит/сек
Программа кодирования : VirtualDubModRus 1.5.10.2 (build 2542/release)
Библиотека кодирования : VirtualDubMod build 2542/release

Видео
Идентификатор : 0
Формат : MPEG-4 Visual
Профиль формата : Advanced Simple@L5
Параметр BVOP формата : 1
Параметр QPel формата : Нет
Параметр GMC формата : Без точки перехода
Параметр матрицы формата : Выборочная
Идентификатор кодека : XVID
Идентификатор кодека/Подсказка : XviD
Продолжительность : 1 ч. 2 м.
Битрейт : 1525 Кбит/сек
Ширина : 720 пикселей
Высота : 544 пикселя
Соотношение сторон : 4:3
Частота кадров : 25,000 кадров/сек
Цветовое пространство : YUV
Субдискретизация насыщенности : 4:2:0
Битовая глубина : 8 бит
Тип развёртки : Прогрессивная
Метод сжатия : С потерями
Бит/(Пиксели*Кадры) : 0.156
Размер потока : 682 Мбайт (92%)
Библиотека кодирования : XviD 73

Аудио
Идентификатор : 1
Формат : MPEG Audio
Версия формата : Version 1
Профиль формата : Layer 3
Идентификатор кодека : 55
Идентификатор кодека/Подсказка : MP3
Продолжительность : 1 ч. 2 м.
Вид битрейта : Постоянный
Битрейт : 128 Кбит/сек
Каналы : 2 канала
Частота : 48,0 КГц
Метод сжатия : С потерями
Размер потока : 57,2 Мбайт (8%)
Выравнивание : Соединение по промежуткам
Продолжительность промежутка : 40 мс. (1,00 видеокадр)
Время предзагрузки промежутка : 504 мс.
Библиотека кодирования : LAME3.99r
Настройки программы : -m s -V 4 -q 2 -lowpass 17 -b 128





   Похожие торренты   Торрент   Размер 
В этой теме нет новых непрочитанных сообщений. Путешествие по Европе. Выпуск №29: Шотландия (2009) DVDRip-AVC от New-Team

1 | 2

1.09 ГБ

В этой теме нет новых непрочитанных сообщений. Путешествие по Европе. Выпуск №29: Шотландия (2009) DVDRip от New-Team

1 | 2

1.09 ГБ

В этой теме нет новых непрочитанных сообщений. Путешествие по Европе. Выпуск №29: Шотландия (2009) DVD5 R5 от New-Team

3 | 2

2.75 ГБ

В этой теме нет новых непрочитанных сообщений. Путешествие по Европе. Выпуск №25: Прованс (2009) DVDRip от New-Team

0 | 1

745.28 МБ

В этой теме нет новых непрочитанных сообщений. Путешествие по Европе. Выпуск №33: Андалузия (2009) DVDRip от New-Team

11 | 3

745.2 МБ

В этой теме нет новых непрочитанных сообщений. Путешествие по Европе. Выпуск №50: Киклады (2009) DVDRip от New-Team

0 | 2

745.63 МБ

В этой теме нет новых непрочитанных сообщений. Путешествие по Европе. Выпуск №27: Сицилия (2009) DVDRip от New-Team

0 | 1

1.46 ГБ




Вы не можете начинать темы
Вы не можете отвечать на сообщения
Вы не можете редактировать свои сообщения
Вы не можете удалять свои сообщения
Вы не можете добавлять вложения

Перейти:  
Для Мосгорсуда, Роскомнадзора и рекламодателей: mosgorsud-torrent[собачка]yandex.ru
 Вход
ppkBB3cker v.2 © 2008-2014 @ PPK
[ Time : 0.598s | 15 Queries | GZIP : On ]

Торрент трекер RUTOR.IN, Не можете зайти на rutor.org? Какой новый адрес рутор? Какое зеркало рутор? Не работает rutor.org и зеркала? Тогда наш торрент специально для вас. Rutor.in неофициальное зеркало rutor. В случае если у Вас заблокирован rutor или вдруг Вы не можете на него зайти, то Вы без труда сможете скачать бесплатно и без рекламы последние новинки кино, игр, сериалов и прочего у нас, на Rutor.in. Не нужно использовать прокси, чтобы зайти на рутор, достаточно воспользоваться нашим ресурсом. Все новые фильмы, игры, сериалы, книги и музыка за 2013 и 2014 годы через торрент бесплатно. Скачивайте фильмы в хорошем качестве, игры для пк, xbox, playstation без регистрации. У нас вы найдете новые Зарубежные сериалы и Русские сериалы 2013, 2014, 2015 годов. Оставайтесь с нами, качайте любимые фильмы, игры, сериалы, книги и музыку.