img image001 image001 image001 image001 image001 image001 image001 image001 image001 image001 image001 image001 image001 image001 image001

Planets Sun Sun Sun
Статистика раздачи
Автор: PriZraK | Размер: 2.08 ГБ | Добавлен: 15 фев 2014
Раздают: 138    Качают: 17
Скачать торрент
Скачать торрент
Описание торрента

СообщениеДобавлено: 15 фев 2014 

Информация о фильме
Название: Цель - Луна
Оригинальное название: Moonshot
Год выхода: 2008
Жанр: Документальный, драма
Режиссер: Ричард Дэйл
В ролях: Джеймс Марстерс, Эндрю Линкольн, Урсула Бертон, Дэниэл Лапэйн, Уильям Хоуп, Анна Максвелл Мартин, Колин Стинтон, Майкл Дж. Рейнольдс, Найджел Уитми, Ричард Диллэйн, Коша Энглер, Тревор Уайт, Йен Портер, Мартин МакДугалл, Дженнифер Вудворд, Натан Нолан, Патрик Полетти, Келли Керслэйк, Каллум Марулло

О фильме:
21 июля 1969 года человек впервые ступил на лунную поверхность. Этот фильм, посвященный 40-летней годовщине высадки человека на Луну, - грандиозная реконструкция одного из самых незабываемых событий человеческой истории. Миллиарды людей по всему миру, затаив дыхание, следили за опасной миссией космического корабля Apollo 11, завершившейся абсолютным триумфом. На фоне хорошо известных фактов миссии Apollo 11 в картине разворачивается захватывающая история неизвестных доселе обстоятельств подготовки полета: технические сложности и хитросплетениях взаимоотношений астронавтов, кропотливое изложение деталей путешествия, дополненных никогда не публиковавшимися архивными съемками в HD качестве, передовые спецэффекты, воссоздающие во всей полноте этот уникальный эксперимент, - все это подарит зрителю редкую возможность погрузиться внутрь истории, изменившей представления человечества о собственных возможностях!

Страна: Великобритания, Dangerous Films
Продолжительность: 01:30:59
Перевод: Профессиональный многоголосый
Дата релиза: 24.09.2013

Файл
Кодек: H.264
Качество: BDRip (AVC)
Видео: MPEG-4 AVC, 2500 Кбит/с, 1024x576
Звук: Русский, английский (AC3, 6 ch, 384 Кбит/с)

Общее
Уникальный идентификатор : 222433030548795928747244628284322857234 (0xA7570B1D46C3557AAF0BD93274DFC112)
Полное имя : E:2Cel.Luna.2008.x264.BDRip.(AVC).ExKinoRay.mkv
Формат : Matroska
Размер файла : 2,08 Гбайт
Продолжительность : 1 ч. 30 м.
Общий поток : 3270 Кбит/сек
Название фильма : Cel.Luna.x264.BDRip.(AVC).ExKinoRay
Дата кодирования : UTC 2013-09-23 15:48:14
Программа кодирования : mkvmerge v4.0.0 ('The Stars were mine') сборка от Jun 6 2010 16:18:42
Библиотека кодирования : libebml v1.0.0 + libmatroska v1.0.0

Видео
Идентификатор : 1
Формат : AVC
Формат/Информация : Advanced Video Codec
Профиль формата : High@L4.1
Параметр CABAC формата : Да
Параметр ReFrames формата : 8 кадров
Параметры GOP формата : M=9, N=26
Идентификатор кодека : V_MPEG4/ISO/AVC
Продолжительность : 1 ч. 30 м.
Битрейт : 2500 Кбит/сек
Ширина : 1024 пикс.
Высота : 576 пикс.
Соотношение сторон : 16:9
Частота кадров : 25,000 кадр/сек
Цветовое пространство : YUV
Подвыборка цветности : 4:2:0
Битовая глубина : 8 бит
Тип развёртки : Прогрессивная
Бит/(Пиксели*Кадры) : 0.170
Размер потока : 1,55 Гбайт (75%)
Заголовок : Rip by Enigma-Vladislav71
Библиотека кодирования : x264 core 129 r2245 bc13772
Настройки программы : cabac=1 / ref=8 / deblock=1:-3:-3 / analyse=0x3:0x133 / me=umh / subme=11 / psy=1 / psy_rd=1.00:0.00 / mixed_ref=1 / me_range=48 / chroma_me=1 / trellis=2 / 8x8dct=1 / cqm=0 / deadzone=21,11 / fast_pskip=0 / chroma_qp_offset=-2 / threads=3 / lookahead_threads=1 / sliced_threads=0 / nr=0 / decimate=0 / interlaced=0 / bluray_compat=0 / constrained_intra=0 / bframes=8 / b_pyramid=2 / b_adapt=2 / b_bias=0 / direct=3 / weightb=1 / open_gop=0 / weightp=2 / keyint=250 / keyint_min=25 / scenecut=40 / intra_refresh=0 / rc_lookahead=40 / rc=2pass / mbtree=1 / bitrate=2500 / ratetol=1.0 / qcomp=0.60 / qpmin=10 / qpmax=51 / qpstep=4 / cplxblur=20.0 / qblur=0.5 / ip_ratio=1.40 / aq=2:1.00
Язык : English

Аудио #1
Идентификатор : 2
Формат : AC-3
Формат/Информация : Audio Coding 3
Расширение режима : CM (complete main)
Идентификатор кодека : A_AC3
Продолжительность : 1 ч. 30 м.
Вид битрейта : Постоянный
Битрейт : 384 Кбит/сек
Каналы : 6 каналов
Расположение каналов : Front: L C R, Side: L R, LFE
Частота : 48,0 КГц
Битовая глубина : 16 бит
Метод сжатия : С потерями
Размер потока : 250 Мбайт (12%)
Язык : Russian

Аудио #2
Идентификатор : 3
Формат : AC-3
Формат/Информация : Audio Coding 3
Расширение режима : CM (complete main)
Идентификатор кодека : A_AC3
Продолжительность : 1 ч. 30 м.
Вид битрейта : Постоянный
Битрейт : 384 Кбит/сек
Каналы : 6 каналов
Расположение каналов : Front: L C R, Side: L R, LFE
Частота : 48,0 КГц
Битовая глубина : 16 бит
Метод сжатия : С потерями
Размер потока : 250 Мбайт (12%)
Язык : English



Релиз от:

Авторы релиза:



   Похожие торренты   Торрент   Размер 
В этой теме нет новых непрочитанных сообщений. Цель - Луна / Moonshot / Der Flug von Apollo 11 (2008) BDRip 720p

1 | 2

4.15 ГБ

В этой теме нет новых непрочитанных сообщений. Цель - Луна / Moonshot (2009) DVDRip

49 | 10

1.37 ГБ

В этой теме нет новых непрочитанных сообщений. Цель - Луна / Moonshot (2009) HDRip от R.G.RealMT | P

1 | 3

1.46 ГБ

В этой теме нет новых непрочитанных сообщений. Луна команчей / Comanche Moon (2008) BDRip-AVC от MediaClub | P2, A

139 | 60

9.23 ГБ

В этой теме нет новых непрочитанных сообщений. Цель - Бирма / Objective, Burma! (1945) DVDRip от ExKinoRay

2 | 1

2.06 ГБ

В этой теме нет новых непрочитанных сообщений. Цель / The Objective (2008) DVDRip

7 | 4

2.09 ГБ

В этой теме нет новых непрочитанных сообщений. Неистовая Луна / Бешеная луна / The Raging Moon (1971) DVDRip-AVC

0 | 5

1.46 ГБ




Вы не можете начинать темы
Вы не можете отвечать на сообщения
Вы не можете редактировать свои сообщения
Вы не можете удалять свои сообщения
Вы не можете добавлять вложения

Перейти:  
Для Мосгорсуда, Роскомнадзора и рекламодателей: mosgorsud-torrent[собачка]yandex.ru
 Вход
ppkBB3cker v.2 © 2008-2014 @ PPK
[ Time : 0.054s | 15 Queries | GZIP : Off ]

Торрент трекер RUTOR.IN, Не можете зайти на rutor.org? Какой новый адрес рутор? Какое зеркало рутор? Не работает rutor.org и зеркала? Тогда наш торрент специально для вас. Rutor.in неофициальное зеркало rutor. В случае если у Вас заблокирован rutor или вдруг Вы не можете на него зайти, то Вы без труда сможете скачать бесплатно и без рекламы последние новинки кино, игр, сериалов и прочего у нас, на Rutor.in. Не нужно использовать прокси, чтобы зайти на рутор, достаточно воспользоваться нашим ресурсом. Все новые фильмы, игры, сериалы, книги и музыка за 2013 и 2014 годы через торрент бесплатно. Скачивайте фильмы в хорошем качестве, игры для пк, xbox, playstation без регистрации. У нас вы найдете новые Зарубежные сериалы и Русские сериалы 2013, 2014, 2015 годов. Оставайтесь с нами, качайте любимые фильмы, игры, сериалы, книги и музыку.