img image001 image001 image001 image001 image001 image001 image001 image001 image001 image001 image001 image001 image001 image001 image001

Planets Sun Sun Sun
Статистика раздачи
Автор: PriZraK | Размер: 1.46 ГБ | Добавлен: 16 фев 2014
Раздают: 2    Качают: 2
Скачать торрент
Скачать торрент
Описание торрента

СообщениеДобавлено: 16 фев 2014 

Страны Балтии. Литва, Латвия, Эстония. На берегу Балтийского моря



Год выпуска: 2010
Страна: Германия, Польша, Россия
Студия: Komplett-Media GmbH
Жанр: документальный
Продолжительность: 01:47:36

Перевод: Профессиональный (дикторский закадровый)
Субтитры: нет
Оригинальная аудиодорожка: нет

Описание:
Эстония. Старый город в Таллине сверкает вновь обретенным спустя много лет блеском. Если допустить, что Таллин - это сердце Эстонии, То природный заповедник Лахемма - это её душа. Леса, озёра, ручьи и торфянники, а к тому же дикое побережье, - эти пейзажи никог не оставят равнодушным. Путешествуя по Эстонии, можно поплавать по заболоченным территориям на лодке однодревке, заехать в сауну посреди леса и взойти на стены Тевтонского замка. После трудного путьешествия мы примем грязевую ванну в спа-центре в Курессааре.
Латвия. Во втором по величине государстве Прибалтики пересеклись влияния и традиции Северной, Восточной и Западной Европы. Его исключительное расположение больше всего отразилось на Риге - столице государства. Многокиллометровые песчаные пляжи, мягкий климат и элегантные отели - эти достопримечательности делают Юрмалу латвийской Ривьерой. а любителей истории притягивают прекрасные средневековые замки в Сигулде и Турайде.
Литва. Эта страна на протяжении веков связанная с Польшей, осталась верна католицизму. Символами литовской и польской религиозности были и есть - Гора Крестов в Шауляе и, прежде всего, Остра Брама в Вильнюсе с чудотворной иконой Остробрамской Божьей Матери, перед которой склоняют головы и осеняют себя крестным знамением тысячи паломников.





Исходник: DVD5 R5
Тип релиза: DVDRip
Контейнер: AVI

Видео: 704x528 (4:3), 25 fps, XviD ~ 1544 kbps avg, 0.166 bit/pixel
Аудио: 48 kHz, Dolby AC3 2.0, 192.00 kbps Русский
Аудио: 48 kHz, Dolby AC3 2.0, 192.00 kbps Украинский
Общее
Полное имя : Strany.Baltii.2010.DVDRip_[Youtracker]_by_AVP Studio.avi
Формат : AVI
Формат/Информация : Audio Video Interleave
Размер файла : 1,31 Гбайт
Продолжительность : 1 ч. 47 м.
Общий поток : 1746 Кбит/сек
Программа кодирования : VirtualDubModRus 1.5.10.2 (build 2542/release)
Библиотека кодирования : VirtualDubMod build 2542/release

Видео
Идентификатор : 0
Формат : MPEG-4 Visual
Профиль формата : Advanced Simple@L5
Параметр BVOP формата : 1
Параметр QPel формата : Нет
Параметр GMC формата : Без точки перехода
Параметр матрицы формата : Выборочная
Идентификатор кодека : XVID
Идентификатор кодека/Подсказка : XviD
Продолжительность : 1 ч. 47 м.
Битрейт : 1544 Кбит/сек
Ширина : 704 пикселя
Высота : 528 пикселей
Соотношение сторон : 4:3
Частота кадров : 25,000 кадров/сек
Цветовое пространство : YUV
Субдискретизация насыщенности : 4:2:0
Битовая глубина : 8 бит
Тип развёртки : Прогрессивная
Метод сжатия : С потерями
Бит/(Пиксели*Кадры) : 0.166
Размер потока : 1,16 Гбайт (88%)
Библиотека кодирования : XviD 73

Аудио
Идентификатор : 1
Формат : AC-3
Формат/Информация : Audio Coding 3
Расширение режима : CM (complete main)
Идентификатор кодека : 2000
Продолжительность : 1 ч. 47 м.
Вид битрейта : Постоянный
Битрейт : 192 Кбит/сек
Каналы : 2 канала
Расположение каналов : Front: L R
Частота : 48,0 КГц
Битовая глубина : 16 бит
Метод сжатия : С потерями
Размер потока : 148 Мбайт (11%)
Выравнивание : Разделение по промежуткам
Продолжительность промежутка : 40 мс. (1,00 видеокадр)
Время предзагрузки промежутка : 500 мс





   Похожие торренты   Торрент   Размер 
В этой теме нет новых непрочитанных сообщений. Путешествие по Европе. Выпуск №32: Страны Балтии (2010) DVDRip от New-Team

0 | 3

746.12 МБ

В этой теме нет новых непрочитанных сообщений. Путешествие по Европе. Выпуск №32: Страны Балтии (2010) DVDRip-AVC от New-Team

1 | 3

1.46 ГБ

В этой теме нет новых непрочитанных сообщений. Путешествие по Европе. Выпуск №32: Страны Балтии (2010) DVD5 R5 от New-Team

1 | 2

4.1 ГБ

В этой теме нет новых непрочитанных сообщений. Путешествие по Европе. Выпуск №48: Сардиния (2010) DVDRip-AVC от New-Team

9 | 4

1.46 ГБ

В этой теме нет новых непрочитанных сообщений. Путешествие по Европе. Выпуск №48: Сардиния (2010) DVDRip от New-Team

8 | 4

745.08 МБ

В этой теме нет новых непрочитанных сообщений. Путешествие по Европе. Выпуск №43: Нормандия (2010) DVDRip-AVC от New-Team

4 | 5

743.97 МБ

В этой теме нет новых непрочитанных сообщений. Путешествие по Европе. Выпуск №42: Бретань (2010) DVDRip-AVC от New-Team

7 | 6

744.44 МБ




Вы не можете начинать темы
Вы не можете отвечать на сообщения
Вы не можете редактировать свои сообщения
Вы не можете удалять свои сообщения
Вы не можете добавлять вложения

Перейти:  
Для Мосгорсуда, Роскомнадзора и рекламодателей: mosgorsud-torrent[собачка]yandex.ru
 Вход
ppkBB3cker v.2 © 2008-2014 @ PPK
[ Time : 0.043s | 15 Queries | GZIP : Off ]

Торрент трекер RUTOR.IN, Не можете зайти на rutor.org? Какой новый адрес рутор? Какое зеркало рутор? Не работает rutor.org и зеркала? Тогда наш торрент специально для вас. Rutor.in неофициальное зеркало rutor. В случае если у Вас заблокирован rutor или вдруг Вы не можете на него зайти, то Вы без труда сможете скачать бесплатно и без рекламы последние новинки кино, игр, сериалов и прочего у нас, на Rutor.in. Не нужно использовать прокси, чтобы зайти на рутор, достаточно воспользоваться нашим ресурсом. Все новые фильмы, игры, сериалы, книги и музыка за 2013 и 2014 годы через торрент бесплатно. Скачивайте фильмы в хорошем качестве, игры для пк, xbox, playstation без регистрации. У нас вы найдете новые Зарубежные сериалы и Русские сериалы 2013, 2014, 2015 годов. Оставайтесь с нами, качайте любимые фильмы, игры, сериалы, книги и музыку.