img image001 image001 image001 image001 image001 image001 image001 image001 image001 image001 image001 image001 image001 image001 image001

Planets Sun Sun Sun
Статистика раздачи
Автор: PriZraK | Размер: 746.12 МБ | Добавлен: 15 фев 2014
Раздают: 0    Качают: 2
Скачать торрент
Скачать торрент
Описание торрента

СообщениеДобавлено: 15 фев 2014 

Страны Балтии. Литва, Латвия, Эстония. На берегу Балтийского моря



Год выпуска: 2010
Страна: Германия, Польша, Россия
Студия: Komplett-Media GmbH
Жанр: документальный
Продолжительность: 01:47:36

Перевод: Профессиональный (дикторский закадровый)
Субтитры: нет
Оригинальная аудиодорожка: нет

Описание:
Эстония. Старый город в Таллине сверкает вновь обретенным спустя много лет блеском. Если допустить, что Таллин - это сердце Эстонии, То природный заповедник Лахемма - это её душа. Леса, озёра, ручьи и торфянники, а к тому же дикое побережье, - эти пейзажи никог не оставят равнодушным. Путешествуя по Эстонии, можно поплавать по заболоченным территориям на лодке однодревке, заехать в сауну посреди леса и взойти на стены Тевтонского замка. После трудного путьешествия мы примем грязевую ванну в спа-центре в Курессааре.
Латвия. Во втором по величине государстве Прибалтики пересеклись влияния и традиции Северной, Восточной и Западной Европы. Его исключительное расположение больше всего отразилось на Риге - столице государства. Многокиллометровые песчаные пляжи, мягкий климат и элегантные отели - эти достопримечательности делают Юрмалу латвийской Ривьерой. а любителей истории притягивают прекрасные средневековые замки в Сигулде и Турайде.
Литва. Эта страна на протяжении веков связанная с Польшей, осталась верна католицизму. Символами литовской и польской религиозности были и есть - Гора Крестов в Шауляе и, прежде всего, Остра Брама в Вильнюсе с чудотворной иконой Остробрамской Божьей Матери, перед которой склоняют головы и осеняют себя крестным знамением тысячи паломников.





Исходник: DVD5 R5
Тип релиза: DVDRip
Контейнер: AVI

Видео: 576x432 (4:3), 25 fps, XviD ~ 832 kbps avg, 0.134 bit/pixel
Аудио: 48 kHz, MP3 2.0, 128.00 kbps
Общее
Полное имя : Horosho.sidim!1986.DVDRip-745_[Youtracker]_by_AVP Studio.avi
Формат : AVI
Формат/Информация : Audio Video Interleave
Размер файла : 746 Мбайт
Продолжительность : 1 ч. 47 м.
Общий поток : 969 Кбит/сек
Программа кодирования : VirtualDubModRus 1.5.10.2 (build 2542/release)
Библиотека кодирования : VirtualDubMod build 2542/release

Видео
Идентификатор : 0
Формат : MPEG-4 Visual
Профиль формата : Advanced Simple@L5
Параметр BVOP формата : 1
Параметр QPel формата : Нет
Параметр GMC формата : Без точки перехода
Параметр матрицы формата : Выборочная
Идентификатор кодека : XVID
Идентификатор кодека/Подсказка : XviD
Продолжительность : 1 ч. 47 м.
Битрейт : 832 Кбит/сек
Ширина : 576 пикселей
Высота : 432 пикселя
Соотношение сторон : 4:3
Частота кадров : 25,000 кадров/сек
Цветовое пространство : YUV
Субдискретизация насыщенности : 4:2:0
Битовая глубина : 8 бит
Тип развёртки : Прогрессивная
Метод сжатия : С потерями
Бит/(Пиксели*Кадры) : 0.134
Размер потока : 640 Мбайт (86%)
Библиотека кодирования : XviD 73

Аудио
Идентификатор : 1
Формат : MPEG Audio
Версия формата : Version 1
Профиль формата : Layer 3
Идентификатор кодека : 55
Идентификатор кодека/Подсказка : MP3
Продолжительность : 1 ч. 47 м.
Вид битрейта : Постоянный
Битрейт : 128 Кбит/сек
Каналы : 2 канала
Частота : 48,0 КГц
Метод сжатия : С потерями
Размер потока : 98,5 Мбайт (13%)
Выравнивание : Соединение по промежуткам
Продолжительность промежутка : 40 мс. (1,00 видеокадр)
Время предзагрузки промежутка : 504 мс.
Библиотека кодирования : LAME3.99r
Настройки программы : -m s -V 4 -q 2 -lowpass 17 -b 128





   Похожие торренты   Торрент   Размер 
В этой теме нет новых непрочитанных сообщений. Путешествие по Европе. Выпуск №32: Страны Балтии (2010) DVDRip от New-Team

2 | 2

1.46 ГБ

В этой теме нет новых непрочитанных сообщений. Путешествие по Европе. Выпуск №32: Страны Балтии (2010) DVDRip-AVC от New-Team

1 | 3

1.46 ГБ

В этой теме нет новых непрочитанных сообщений. Путешествие по Европе. Выпуск №32: Страны Балтии (2010) DVD5 R5 от New-Team

1 | 2

4.1 ГБ

В этой теме нет новых непрочитанных сообщений. Путешествие по Европе. Выпуск №24: Крит (2010) DVDRip-AVC от New-Team

7 | 1

1.46 ГБ

В этой теме нет новых непрочитанных сообщений. Путешествие по Европе. Выпуск №23: Исландия (2010) DVDRip от New-Team

7 | 14

1.46 ГБ

В этой теме нет новых непрочитанных сообщений. Путешествие по Европе. Выпуск №45: Корсика (2010) DVDRip от New-Team

1 | 3

745.64 МБ

В этой теме нет новых непрочитанных сообщений. Путешествие по Европе. Выпуск №45: Корсика (2010) DVDRip-AVC от New-Team

2 | 6

744.31 МБ




Вы не можете начинать темы
Вы не можете отвечать на сообщения
Вы не можете редактировать свои сообщения
Вы не можете удалять свои сообщения
Вы не можете добавлять вложения

Перейти:  
Для Мосгорсуда, Роскомнадзора и рекламодателей: mosgorsud-torrent[собачка]yandex.ru
 Вход
ppkBB3cker v.2 © 2008-2014 @ PPK
[ Time : 0.058s | 16 Queries | GZIP : Off ]

cron