img image001 image001 image001 image001 image001 image001 image001 image001 image001 image001 image001 image001 image001 image001 image001

Planets Sun Sun Sun
Статистика раздачи
Автор: PriZraK | Размер: 1.1 ГБ | Добавлен: 16 фев 2014
Раздают: 384    Качают: 5
Скачать торрент
Скачать торрент
Описание торрента

СообщениеДобавлено: 16 фев 2014 

Информация о фильме
Название: Египет. Тайны древней цивилизации
Оригинальное название: Egypt 3D
Год выхода: 2013
Жанр: Документальный, познавательный, путешествие, туризм
Режиссер: Бенжамин Ичер, Тимо Дж. Мэйер

О фильме:
Цивилизация Древнего Египта насчитывает более 3000 лет. Дошедшие до наших дней уникальные памятники этой удивительной культуры полны тайн и загадок. Величественные пирамиды, обелиски, храмовые комплексы, украшенные сфинксами, барельефами и настенными росписями потрясают воображение. Гробницы фараонов, мумии, и другие исторические артефакты позволят ощутить дыхание времени в уникальном 3D путешествии. Откройте для себя красоту и мощь древнего государства, раскинувшегося на бескрайних просторах золотой пустыни.

Страна: Германия, Los Banditos Films
Продолжительность: 01:01:32
Перевод: Профессиональный одноголосый
Дата релиза: 13.09.2013

Файл
Кодек: H.264
Качество: BDRip (AVC) (Blu-Ray Remux (1080p))
Видео: MPEG-4 AVC, 1799 Кбит/с, 1024x576
Звук: Русский, английский (AC3, 6 ch, 384 Кбит/с)

Общее
Уникальный идентификатор : 196762159408590585166982312958603332242 (0x94070372F2E67014BA2DA75340488A92)
Полное имя : E:Egipet.Tajny.drevnej.civilizacii.2013.x264.BDRip.(AVC).ExKinoRay.mkv
Формат : Matroska
Размер файла : 1,10 Гбайт
Продолжительность : 1 ч. 1 м.
Общий поток : 2568 Кбит/сек
Название фильма : Egipet.Tajny.drevnej.civilizacii.2013.x264.BDRip.(AVC).ExKinoRay
Дата кодирования : UTC 2013-09-10 16:45:12
Программа кодирования : mkvmerge v4.0.0 ('The Stars were mine') сборка от Jun 6 2010 16:18:42
Библиотека кодирования : libebml v1.0.0 + libmatroska v1.0.0

Видео
Идентификатор : 1
Формат : AVC
Формат/Информация : Advanced Video Codec
Профиль формата : High@L4.1
Параметр CABAC формата : Да
Параметр ReFrames формата : 8 кадров
Идентификатор кодека : V_MPEG4/ISO/AVC
Продолжительность : 1 ч. 1 м.
Битрейт : 1799 Кбит/сек
Ширина : 1024 пикс.
Высота : 576 пикс.
Соотношение сторон : 16:9
Частота кадров : 23,976 кадр/сек
Цветовое пространство : YUV
Подвыборка цветности : 4:2:0
Битовая глубина : 8 бит
Тип развёртки : Прогрессивная
Бит/(Пиксели*Кадры) : 0.127
Размер потока : 770 Мбайт (68%)
Заголовок : Rip by Enigma-Vladislav71
Библиотека кодирования : x264 core 129 r2245 bc13772
Настройки программы : cabac=1 / ref=8 / deblock=1:-2:-2 / analyse=0x3:0x133 / me=umh / subme=11 / psy=1 / psy_rd=1.00:0.00 / mixed_ref=1 / me_range=48 / chroma_me=1 / trellis=2 / 8x8dct=1 / cqm=0 / deadzone=21,11 / fast_pskip=0 / chroma_qp_offset=-2 / threads=3 / lookahead_threads=1 / sliced_threads=0 / nr=0 / decimate=0 / interlaced=0 / bluray_compat=0 / constrained_intra=0 / bframes=8 / b_pyramid=2 / b_adapt=2 / b_bias=0 / direct=3 / weightb=1 / open_gop=0 / weightp=2 / keyint=240 / keyint_min=23 / scenecut=40 / intra_refresh=0 / rc_lookahead=40 / rc=2pass / mbtree=1 / bitrate=1799 / ratetol=1.0 / qcomp=0.60 / qpmin=10 / qpmax=51 / qpstep=4 / cplxblur=20.0 / qblur=0.5 / ip_ratio=1.40 / aq=2:1.00
Язык : English

Аудио #1
Идентификатор : 2
Формат : AC-3
Формат/Информация : Audio Coding 3
Расширение режима : CM (complete main)
Идентификатор кодека : A_AC3
Продолжительность : 1 ч. 1 м.
Вид битрейта : Постоянный
Битрейт : 384 Кбит/сек
Каналы : 6 каналов
Расположение каналов : Front: L C R, Side: L R, LFE
Частота : 48,0 КГц
Битовая глубина : 16 бит
Метод сжатия : С потерями
Размер потока : 169 Мбайт (15%)
Язык : Russian

Аудио #2
Идентификатор : 3
Формат : AC-3
Формат/Информация : Audio Coding 3
Расширение режима : CM (complete main)
Идентификатор кодека : A_AC3
Продолжительность : 1 ч. 1 м.
Вид битрейта : Постоянный
Битрейт : 384 Кбит/сек
Каналы : 6 каналов
Расположение каналов : Front: L C R, Side: L R, LFE
Частота : 48,0 КГц
Битовая глубина : 16 бит
Метод сжатия : С потерями
Размер потока : 169 Мбайт (15%)
Язык : English



Релиз от:

Авторы релиза:



   Похожие торренты   Торрент   Размер 
В этой теме нет новых непрочитанных сообщений. Египет. Тайны древней цивилизации / Egypt (2013) BDRip 720p от denis 100 | P1

411 | 18

2.39 ГБ

В этой теме нет новых непрочитанных сообщений. Египет. Тайны древней цивилизации / Egypt (2013) BDRip 1080p от denis 100 | P1

51 | 11

4.65 ГБ

В этой теме нет новых непрочитанных сообщений. BBC: Египет. Тайны, скрытые под землей / BBC:Egypt. What lies beneath [01-02 из ?] (2011) SATRip

289 | 6

1.01 ГБ

В этой теме нет новых непрочитанных сообщений. Египет 3D / Egypt 3D (2013) BDRip 1080p | 3D-Video | halfOU

35 | 5

5.14 ГБ

В этой теме нет новых непрочитанных сообщений. Города мира: Египет / Cities of the World: Egypt (2010) DVDRip от ExKinoRay

6 | 6

677.78 МБ

В этой теме нет новых непрочитанных сообщений. Египет 3D / Egypt 3D (2013) Blu-ray 1080p | 3D-Video

11 | 10

18.65 ГБ

В этой теме нет новых непрочитанных сообщений. Древний Египет: жизнь и смерть в Долине Царей / Ancient Egypt: Life and Death in the Valley of the Kings [01-02 из 02] (2013) DVB от File

209 | 13

2.96 ГБ




Вы не можете начинать темы
Вы не можете отвечать на сообщения
Вы не можете редактировать свои сообщения
Вы не можете удалять свои сообщения
Вы не можете добавлять вложения

Перейти:  
Для Мосгорсуда, Роскомнадзора и рекламодателей: mosgorsud-torrent[собачка]yandex.ru
 Вход
ppkBB3cker v.2 © 2008-2014 @ PPK
[ Time : 0.038s | 15 Queries | GZIP : Off ]

Торрент трекер RUTOR.IN, Не можете зайти на rutor.org? Какой новый адрес рутор? Какое зеркало рутор? Не работает rutor.org и зеркала? Тогда наш торрент специально для вас. Rutor.in неофициальное зеркало rutor. В случае если у Вас заблокирован rutor или вдруг Вы не можете на него зайти, то Вы без труда сможете скачать бесплатно и без рекламы последние новинки кино, игр, сериалов и прочего у нас, на Rutor.in. Не нужно использовать прокси, чтобы зайти на рутор, достаточно воспользоваться нашим ресурсом. Все новые фильмы, игры, сериалы, книги и музыка за 2013 и 2014 годы через торрент бесплатно. Скачивайте фильмы в хорошем качестве, игры для пк, xbox, playstation без регистрации. У нас вы найдете новые Зарубежные сериалы и Русские сериалы 2013, 2014, 2015 годов. Оставайтесь с нами, качайте любимые фильмы, игры, сериалы, книги и музыку.