img image001 image001 image001 image001 image001 image001 image001 image001 image001 image001 image001 image001 image001 image001 image001

Planets Sun Sun Sun
Статистика раздачи
Автор: PriZraK | Размер: 2.28 ГБ | Добавлен: 15 фев 2014
Раздают: 2    Качают: 2
Скачать торрент
Скачать торрент
Описание торрента

СообщениеДобавлено: 15 фев 2014 

Информация о фильме
Название: Кояанискатси
Оригинальное название: Koyaanisqatsi
Год выхода: 1982
Жанр: Документальный, музыка
Режиссер: Годфри Реджио

О фильме:
«Koyaanisqatsi» - с языка индейцев племени хопи - это безумная жизнь, беспорядочная жизнь, жизнь на грани распада, жизнь вне баланса, жизнь, требующая изменений во имя продолжения жизни... Это первый из трилогии фильмов «Кацци», показывающей с различных сторон взаимодействие человека и технологии. Другие две ленты трилогии: «Повакацци» и «Накойкацци». Более десятилетия из-за лицензионных ограничений фильм «Койяанискаци» не издавался, так как Филип Гласс и его ансамбль гастролировали с ним, вживую исполняя музыку прямо перед киноэкраном во время показов.

Страна: США, Institute for Regional Education, Santa Fe, IRE Productions
Продолжительность: 01:26:05
Перевод: Не требуется
Дата релиза: 04.09.2013

Файл
Кодек: H.264
Качество: BDRip (AVC)
Видео: MPEG-4 AVC, 3349 Kбит/с, 1024x556
Звук: AC3, 6 ch, 448 Кбит/с
Общее
Уникальный идентификатор : 215286672583151517638905124197133769008 (0xA1F6B476A7CA61978D28A7617B1CD930)
Полное имя : E:закачкиKojaaniskatsi.1982.x264.BDRip.(AVC).ExKinoRay.mkv
Формат : Matroska
Размер файла : 2,28 Гбайт
Продолжительность : 1 ч. 26 м.
Общий поток : 3796 Кбит/сек
Название фильма : Kojaaniskatsi.1982.x264.BDRip.(AVC).ExKinoRay
Дата кодирования : UTC 2013-09-01 15:15:39
Программа кодирования : mkvmerge v4.0.0 ('The Stars were mine') сборка от Jun 6 2010 16:18:42
Библиотека кодирования : libebml v1.0.0 + libmatroska v1.0.0

Видео
Идентификатор : 1
Формат : AVC
Формат/Информация : Advanced Video Codec
Профиль формата : High@L4.1
Параметр CABAC формата : Да
Параметр ReFrames формата : 8 кадров
Идентификатор кодека : V_MPEG4/ISO/AVC
Продолжительность : 1 ч. 26 м.
Битрейт : 3349 Кбит/сек
Ширина : 1024 пикс.
Высота : 556 пикс.
Соотношение сторон : 16:9
Частота кадров : 23,976 кадр/сек
Цветовое пространство : YUV
Подвыборка цветности : 4:2:0
Битовая глубина : 8 бит
Тип развёртки : Прогрессивная
Бит/(Пиксели*Кадры) : 0.245
Размер потока : 1,97 Гбайт (86%)
Заголовок : Rip by Enigma-Vladislav71
Библиотека кодирования : x264 core 129 r2245 bc13772
Настройки программы : cabac=1 / ref=8 / deblock=1:-2:-2 / analyse=0x3:0x133 / me=umh / subme=11 / psy=1 / psy_rd=1.00:0.00 / mixed_ref=1 / me_range=48 / chroma_me=1 / trellis=2 / 8x8dct=1 / cqm=0 / deadzone=21,11 / fast_pskip=0 / chroma_qp_offset=-2 / threads=3 / lookahead_threads=1 / sliced_threads=0 / nr=0 / decimate=0 / interlaced=0 / bluray_compat=0 / constrained_intra=0 / bframes=8 / b_pyramid=2 / b_adapt=2 / b_bias=0 / direct=3 / weightb=1 / open_gop=0 / weightp=2 / keyint=240 / keyint_min=23 / scenecut=40 / intra_refresh=0 / rc_lookahead=40 / rc=2pass / mbtree=1 / bitrate=3349 / ratetol=1.0 / qcomp=0.60 / qpmin=10 / qpmax=51 / qpstep=4 / cplxblur=20.0 / qblur=0.5 / ip_ratio=1.40 / aq=2:1.00
Язык : English

Аудио
Идентификатор : 2
Формат : AC-3
Формат/Информация : Audio Coding 3
Расширение режима : CM (complete main)
Идентификатор кодека : A_AC3
Продолжительность : 1 ч. 26 м.
Вид битрейта : Постоянный
Битрейт : 448 Кбит/сек
Каналы : 6 каналов
Расположение каналов : Front: L C R, Side: L R, LFE
Частота : 48,0 КГц
Битовая глубина : 16 бит
Метод сжатия : С потерями
Размер потока : 276 Мбайт (12%)
Язык : English

Меню
00:00:00.000 : en:Chapter 01
00:03:54.234 : en:Chapter 02
00:11:59.343 : en:Chapter 03
00:16:27.111 : en:Chapter 04
00:23:04.383 : en:Chapter 05
00:26:40.348 : en:Chapter 06
00:31:08.366 : en:Chapter 07
00:38:00.611 : en:Chapter 08
00:44:14.526 : en:Chapter 09
00:48:58.936 : en:Chapter 10
00:52:31.398 : en:Chapter 11
00:59:22.475 : en:Chapter 12
01:05:53.908 : en:Chapter 13
01:08:24.308 : en:Chapter 14
01:15:41.954 : en:Chapter 15
01:22:16.431 : en:Chapter 16


Релиз от:

Авторы релиза:



   Похожие торренты   Торрент   Размер 
В этой теме нет новых непрочитанных сообщений. Кояанискатси / Koyaanisqatsi (1982) BDRip 1080p от ExKinoRay

3 | 4

7.96 ГБ

В этой теме нет новых непрочитанных сообщений. Кояанискатси / Koyaanisqatsi: Life Out of Balance (1982) BDRip от HQ-ViDEO

8 | 4

1.46 ГБ

В этой теме нет новых непрочитанных сообщений. Нечто / The Thing (1982) BDRip 720p от ExKinoRay

66 | 4

2.04 ГБ

В этой теме нет новых непрочитанных сообщений. Магистраль (1982) SATRip-AVC от ExKinoRay

138 | 17

1.86 ГБ

В этой теме нет новых непрочитанных сообщений. Чародеи (1982) DVDRip-AVC от ExKinoRay

1349 | 56

3.26 ГБ

В этой теме нет новых непрочитанных сообщений. Инспектор ГАИ (1982) DVDRip-AVC от ExKinoRay

200 | 44

1.7 ГБ

В этой теме нет новых непрочитанных сообщений. Транзит (1982) SATRip-AVC от ExKinoRay

44 | 2

1.92 ГБ




Вы не можете начинать темы
Вы не можете отвечать на сообщения
Вы не можете редактировать свои сообщения
Вы не можете удалять свои сообщения
Вы не можете добавлять вложения

Перейти:  
Для Мосгорсуда, Роскомнадзора и рекламодателей: mosgorsud-torrent[собачка]yandex.ru
 Вход
ppkBB3cker v.2 © 2008-2014 @ PPK
[ Time : 0.042s | 15 Queries | GZIP : Off ]

Торрент трекер RUTOR.IN, Не можете зайти на rutor.org? Какой новый адрес рутор? Какое зеркало рутор? Не работает rutor.org и зеркала? Тогда наш торрент специально для вас. Rutor.in неофициальное зеркало rutor. В случае если у Вас заблокирован rutor или вдруг Вы не можете на него зайти, то Вы без труда сможете скачать бесплатно и без рекламы последние новинки кино, игр, сериалов и прочего у нас, на Rutor.in. Не нужно использовать прокси, чтобы зайти на рутор, достаточно воспользоваться нашим ресурсом. Все новые фильмы, игры, сериалы, книги и музыка за 2013 и 2014 годы через торрент бесплатно. Скачивайте фильмы в хорошем качестве, игры для пк, xbox, playstation без регистрации. У нас вы найдете новые Зарубежные сериалы и Русские сериалы 2013, 2014, 2015 годов. Оставайтесь с нами, качайте любимые фильмы, игры, сериалы, книги и музыку.