img image001 image001 image001 image001 image001 image001 image001 image001 image001 image001 image001 image001 image001 image001 image001

Planets Sun Sun Sun
Статистика раздачи
Автор: PriZraK | Размер: 744.61 МБ | Добавлен: 15 фев 2014
Раздают: 2    Качают: 2
Скачать торрент
Скачать торрент
Описание торрента

СообщениеДобавлено: 15 фев 2014 

Тоскана. Почти как в раю



Год выпуска: 2009
Страна: Германия, Польша, Россия
Студия: Komplett-Media GmbH
Жанр: документальный
Продолжительность: 01:42:11

Перевод: Профессиональный (дикторский закадровый)
Субтитры: нет
Оригинальная аудиодорожка: нет

Описание:
Мы начинаем наше путешествие по Тоскане с Флоренции, хранящей в своих стенах невообразимое количество шедевров архитектуры, живописи и скульптуры. На протяжении столетий с Флоренцией соперничала готическая Сиена, очаровывающая не только памятниками старины, но и динамичным развитием истории. Именно в Сиене, на Пьяцца-дель-Кампо каждый год проходят захватывающие скачки. Другие тосканские города наполнят нас массой незабываемых впечатлений. Перед нами Пиза со своей знаменитой Падающей башней; Лукка с бесчисленными памятниками древних времен, Средневековья и эпохи Возрождения; Вольтерра, славящаяся многовековой традицией обработки алебастра, и Сан-Джиминьяно с легендарными башнями. Кьянти — это край, известный восхитительными винами, а также синоним средиземноморского пейзажа: глаз радуется зеленым холмам, покрытым виноградниками и оливковыми деревьями под голубым небом. Тоскана — это бесподобные морские курорты, идиллические деревушки и рыбацкие порты, а также уголки девственной природы, такие как болотистая Маремма, приют многих видов растений и животных. Каждый год сотни тысяч туристов обретают в Тоскане рай на Земле — ласковое солнце, прекрасные пейзажи, великолепные памятники старины и маленькие удовольствия, такие как бокал восхитительного вина или лучший в мире капуччино...





Исходник: DVD5 R5
Тип релиза: DVDRip
Контейнер: AVI

Видео: 576x432 (4:3), 25 fps, XviD ~ 881 kbps avg, 0.142 bit/pixel
Аудио: 48 kHz, MP3 2.0, 128.00 kbps
Общее
Полное имя : Toskana.Pochti.kak.v.rayu.2009.DVDRip-745_[Youtracker]_by_AVP Studio.avi
Формат : AVI
Формат/Информация : Audio Video Interleave
Размер файла : 745 Мбайт
Продолжительность : 1 ч. 42 м.
Общий поток : 1019 Кбит/сек
Программа кодирования : VirtualDubModRus 1.5.10.2 (build 2542/release)
Библиотека кодирования : VirtualDubMod build 2542/release

Видео
Идентификатор : 0
Формат : MPEG-4 Visual
Профиль формата : Advanced Simple@L5
Параметр BVOP формата : 1
Параметр QPel формата : Нет
Параметр GMC формата : Без точки перехода
Параметр матрицы формата : Выборочная
Идентификатор кодека : XVID
Идентификатор кодека/Подсказка : XviD
Продолжительность : 1 ч. 42 м.
Битрейт : 881 Кбит/сек
Ширина : 576 пикселей
Высота : 432 пикселя
Соотношение сторон : 4:3
Частота кадров : 25,000 кадров/сек
Цветовое пространство : YUV
Субдискретизация насыщенности : 4:2:0
Битовая глубина : 8 бит
Тип развёртки : Прогрессивная
Метод сжатия : С потерями
Бит/(Пиксели*Кадры) : 0.142
Размер потока : 644 Мбайт (86%)
Библиотека кодирования : XviD 73

Аудио
Идентификатор : 1
Формат : MPEG Audio
Версия формата : Version 1
Профиль формата : Layer 3
Идентификатор кодека : 55
Идентификатор кодека/Подсказка : MP3
Продолжительность : 1 ч. 42 м.
Вид битрейта : Постоянный
Битрейт : 128 Кбит/сек
Каналы : 2 канала
Частота : 48,0 КГц
Метод сжатия : С потерями
Размер потока : 93,6 Мбайт (13%)
Выравнивание : Соединение по промежуткам
Продолжительность промежутка : 40 мс. (1,00 видеокадр)
Время предзагрузки промежутка : 504 мс.
Библиотека кодирования : LAME3.99r
Настройки программы : -m s -V 4 -q 2 -lowpass 17 -b 128





   Похожие торренты   Торрент   Размер 
В этой теме нет новых непрочитанных сообщений. Путешествие по Европе. Выпуск №35: Тоскана (2010) DVDRip-AVC от New-Team

1 | 3

1.48 ГБ

В этой теме нет новых непрочитанных сообщений. Путешествие по Европе. Выпуск №35: Тоскана (2010) DVDRip от New-Team

4 | 4

1.48 ГБ

В этой теме нет новых непрочитанных сообщений. Путешествие по Европе. Выпуск №35: Тоскана (2009) DVD5 R5 от New-Team

0 | 3

3.95 ГБ

В этой теме нет новых непрочитанных сообщений. Путешествие по Европе. Выпуск №23: Исландия (2010) DVDRip от New-Team

1 | 3

744.86 МБ

В этой теме нет новых непрочитанных сообщений. Путешествие по Европе. Выпуск №44: Норвегия (2010) DVDRip-AVC от New-Team

15 | 2

1.46 ГБ

В этой теме нет новых непрочитанных сообщений. Путешествие по Европе. Выпуск №36: Германия (2010) DVDRip-AVC от New-Team

4 | 3

1.46 ГБ

В этой теме нет новых непрочитанных сообщений. Путешествие по Европе. Выпуск №45: Корсика (2010) DVDRip от New-Team

1 | 3

745.64 МБ




Вы не можете начинать темы
Вы не можете отвечать на сообщения
Вы не можете редактировать свои сообщения
Вы не можете удалять свои сообщения
Вы не можете добавлять вложения

Перейти:  
Для Мосгорсуда, Роскомнадзора и рекламодателей: mosgorsud-torrent[собачка]yandex.ru
 Вход
ppkBB3cker v.2 © 2008-2014 @ PPK
[ Time : 0.606s | 15 Queries | GZIP : Off ]

Торрент трекер RUTOR.IN, Не можете зайти на rutor.org? Какой новый адрес рутор? Какое зеркало рутор? Не работает rutor.org и зеркала? Тогда наш торрент специально для вас. Rutor.in неофициальное зеркало rutor. В случае если у Вас заблокирован rutor или вдруг Вы не можете на него зайти, то Вы без труда сможете скачать бесплатно и без рекламы последние новинки кино, игр, сериалов и прочего у нас, на Rutor.in. Не нужно использовать прокси, чтобы зайти на рутор, достаточно воспользоваться нашим ресурсом. Все новые фильмы, игры, сериалы, книги и музыка за 2013 и 2014 годы через торрент бесплатно. Скачивайте фильмы в хорошем качестве, игры для пк, xbox, playstation без регистрации. У нас вы найдете новые Зарубежные сериалы и Русские сериалы 2013, 2014, 2015 годов. Оставайтесь с нами, качайте любимые фильмы, игры, сериалы, книги и музыку.