img image001 image001 image001 image001 image001 image001 image001 image001 image001 image001 image001 image001 image001 image001 image001

Planets Sun Sun Sun
Статистика раздачи
Автор: PriZraK | Размер: 19.49 ГБ | Добавлен: 15 фев 2014
Раздают: 10    Качают: 4
Скачать торрент
Скачать торрент
Описание торрента

СообщениеДобавлено: 15 фев 2014 

Информация о фильме
Название: ПАРИЖ: История одной столицы
Оригинальное название: PARIS Une histoire capitale
Год выхода: 2012
Жанр: Документальный
Режиссер: Ксавье Лефевр, Ален Зеноу, Алексис Барбье-Буве

О фильме:
Париж – пестрый и многоликий, сулит немало сюрпризов всем, кто хочет узнать его ближе. Его неповторимый облик складывался на протяжении многих веков. Сквозь облик современных площадей и улиц проступают очертания старинного города, сохранившего связь с прошлым. Мы узнаем о том, как складывалась история Парижа, и как из скромного галло-римского городка он превратился в могущественную столицу и духовный и интеллектуальный центр Европы.
Страна: Франция
Студия: Gedeon Programmes
Продолжительность: 4 x ~ 00:54:28
Перевод: Дублированный

Файл
Кодек: x264
Качество: BDRip 1080p
Видео: MPEG-4 AVC, 11500 Кбит/с, 1920x1080, 23.976 кадр/с
Звук:
Русский (AC3, 2 ch, 384 Кбит/с) / Дублированный
Английский (AC3, 2 ch, 384 Кбит/с)
Французский (AC3, 2 ch, 384 Кбит/с)
Субтитры: Русские, английские

Семпл
Полное имя : D:новые релизыParij.istorii.odnoi.stolici.(4.serii.iz.4).2012.BDRip.1080p.MediaClubParij.istorii.odnoi.stolici.(2.serij.iz.4).2012.BDRip.1080p.MediaClub.mkv
Формат : Matroska
Версия формата : Version 2
Размер файла : 4,81 Гбайт
Продолжительность : 54 м.
Общий поток : 12,7 Мбит/сек
Название фильма : Release for MediaClub by AlexAndr92
Дата кодирования : UTC 2013-10-02 20:18:10
Программа кодирования : mkvmerge v4.0.0 ('The Stars were mine') сборка от Jun 6 2010 16:18:42
Библиотека кодирования : libebml v1.0.0 + libmatroska v1.0.0

Видео
Идентификатор : 1
Формат : AVC
Формат/Информация : Advanced Video Codec
Профиль формата : High@L4.1
Параметр CABAC формата : Да
Параметр ReFrames формата : 4 кадра
Идентификатор кодека : V_MPEG4/ISO/AVC
Продолжительность : 54 м.
Битрейт : 11,5 Мбит/сек
Ширина : 1920 пикселей
Высота : 1080 пикселей
Соотношение сторон : 16:9
Режим частоты кадров : Постоянный
Частота кадров : 23,976 кадра/сек
Цветовое пространство : YUV
Субдискретизация насыщенности : 4:2:0
Битовая глубина : 8 бит
Тип развёртки : Прогрессивная
Бит/(Пиксели*Кадры) : 0.231
Размер потока : 4,28 Гбайт (89%)
Библиотека кодирования : x264 core 130 r2273 b3065e6
Настройки программы : cabac=1 / ref=4 / deblock=1:-3:-3 / analyse=0x3:0x133 / me=umh / subme=11 / psy=1 / psy_rd=1.00:0.15 / mixed_ref=1 / me_range=32 / chroma_me=1 / trellis=2 / 8x8dct=1 / cqm=0 / deadzone=21,11 / fast_pskip=0 / chroma_qp_offset=-3 / threads=6 / lookahead_threads=1 / sliced_threads=0 / nr=0 / decimate=0 / interlaced=0 / bluray_compat=0 / constrained_intra=0 / bframes=8 / b_pyramid=2 / b_adapt=2 / b_bias=0 / direct=3 / weightb=1 / open_gop=0 / weightp=2 / keyint=240 / keyint_min=23 / scenecut=40 / intra_refresh=0 / rc=2pass / mbtree=0 / bitrate=11500 / ratetol=1.0 / qcomp=0.60 / qpmin=0 / qpmax=69 / qpstep=4 / cplxblur=20.0 / qblur=0.5 / ip_ratio=1.40 / pb_ratio=1.30 / aq=1:1.00
Язык : English
Default : Нет
Forced : Нет

Аудио #1
Идентификатор : 2
Формат : AC-3
Формат/Информация : Audio Coding 3
Расширение режима : CM (complete main)
Параметр Endianness формата : Big
Идентификатор кодека : A_AC3
Продолжительность : 54 м.
Вид битрейта : Постоянный
Битрейт : 384 Кбит/сек
Каналы : 2 канала
Расположение каналов : Front: L R
Частота : 48,0 КГц
Битовая глубина : 16 бит
Метод сжатия : С потерями
Размер потока : 150 Мбайт (3%)
Язык : Russian
Default : Да
Forced : Нет

Аудио #2
Идентификатор : 3
Формат : AC-3
Формат/Информация : Audio Coding 3
Расширение режима : CM (complete main)
Параметр Endianness формата : Big
Идентификатор кодека : A_AC3
Продолжительность : 54 м.
Вид битрейта : Постоянный
Битрейт : 384 Кбит/сек
Каналы : 2 канала
Расположение каналов : Front: L R
Частота : 48,0 КГц
Битовая глубина : 16 бит
Метод сжатия : С потерями
Размер потока : 150 Мбайт (3%)
Язык : English
Default : Нет
Forced : Нет

Аудио #3
Идентификатор : 4
Формат : AC-3
Формат/Информация : Audio Coding 3
Расширение режима : CM (complete main)
Параметр Endianness формата : Big
Идентификатор кодека : A_AC3
Продолжительность : 54 м.
Вид битрейта : Постоянный
Битрейт : 384 Кбит/сек
Каналы : 2 канала
Расположение каналов : Front: L R
Частота : 48,0 КГц
Битовая глубина : 16 бит
Метод сжатия : С потерями
Размер потока : 150 Мбайт (3%)
Язык : French
Default : Нет
Forced : Нет

Текст #1
Идентификатор : 5
Формат : UTF-8
Идентификатор кодека : S_TEXT/UTF8
Идентификатор кодека/Информация : UTF-8 Plain Text
Язык : Russian
Default : Нет
Forced : Нет

Текст #2
Идентификатор : 6
Формат : UTF-8
Идентификатор кодека : S_TEXT/UTF8
Идентификатор кодека/Информация : UTF-8 Plain Text
Язык : English
Default : Нет
Forced : Нет

Меню
00:00:00.000 : :Chapter 01
00:01:55.490 : :Chapter 02
00:16:13.138 : :Chapter 03
00:26:11.653 : :Chapter 04
00:34:08.713 : :Chapter 05
00:42:34.218 : :Chapter 06
00:54:27.514 : :Chapter 07
00:54:28.056 : :Chapter 08




Релиз от: | AlexAndr92



   Похожие торренты   Торрент   Размер 
В этой теме нет новых непрочитанных сообщений. Париж: История одной столицы / PARIS, A capital tale / PARIS Une histoire capitale [01-04 из 04] (2012) BDRip | L1

65 | 9

3.01 ГБ

В этой теме нет новых непрочитанных сообщений. Париж: Путешествие во времени / Paris, The Great Saga / Paris, la ville à remonter le temps (2012) BDRip 1080p | P2

9 | 4

10.02 ГБ

В этой теме нет новых непрочитанных сообщений. Париж: Путешествие во времени / Paris, The Great Saga / Paris, la ville à remonter le temps [Часть 2] (2012) BDRip 1080p | P2

2 | 8

9.05 ГБ

В этой теме нет новых непрочитанных сообщений. Прощай, Париж / Adieu Paris (2013) BDRip 1080p от MediaClub | P | Лицензия

44 | 36

7.69 ГБ

В этой теме нет новых непрочитанных сообщений. Париж-Манхэттен / Paris-Manhattan (2012) BDRip-AVC от MediaClub | P

101 | 26

2.26 ГБ

В этой теме нет новых непрочитанных сообщений. Париж любой ценой / Paris à tout prix (2013) BDRip 1080p от MediaClub | D | Лицензия

60 | 20

7.73 ГБ

В этой теме нет новых непрочитанных сообщений. Париж: Путешествие во времени / Paris, The Great Saga / Paris, la ville à remonter le temps [Часть 2] (2012) BDRip | P2

1 | 2

496.36 МБ




Вы не можете начинать темы
Вы не можете отвечать на сообщения
Вы не можете редактировать свои сообщения
Вы не можете удалять свои сообщения
Вы не можете добавлять вложения

Перейти:  
Для Мосгорсуда, Роскомнадзора и рекламодателей: mosgorsud-torrent[собачка]yandex.ru
 Вход
ppkBB3cker v.2 © 2008-2014 @ PPK
[ Time : 0.042s | 17 Queries | GZIP : On ]

Торрент трекер RUTOR.IN, Не можете зайти на rutor.org? Какой новый адрес рутор? Какое зеркало рутор? Не работает rutor.org и зеркала? Тогда наш торрент специально для вас. Rutor.in неофициальное зеркало rutor. В случае если у Вас заблокирован rutor или вдруг Вы не можете на него зайти, то Вы без труда сможете скачать бесплатно и без рекламы последние новинки кино, игр, сериалов и прочего у нас, на Rutor.in. Не нужно использовать прокси, чтобы зайти на рутор, достаточно воспользоваться нашим ресурсом. Все новые фильмы, игры, сериалы, книги и музыка за 2013 и 2014 годы через торрент бесплатно. Скачивайте фильмы в хорошем качестве, игры для пк, xbox, playstation без регистрации. У нас вы найдете новые Зарубежные сериалы и Русские сериалы 2013, 2014, 2015 годов. Оставайтесь с нами, качайте любимые фильмы, игры, сериалы, книги и музыку.