img image001 image001 image001 image001 image001 image001 image001 image001 image001 image001 image001 image001 image001 image001 image001

Planets Sun Sun Sun
Статистика раздачи
Автор: PriZraK | Размер: 829.08 МБ | Добавлен: 15 фев 2014
Раздают: 6    Качают: 2
Скачать торрент
Скачать торрент
Описание торрента

СообщениеДобавлено: 15 фев 2014 

Информация о фильме
Название: Дети снегов
Оригинальное название: Snow Babies
Год выхода: 2012
Жанр: Документальный, видовой, научно-познавательный, исследования, природа, флора, фауна
В ролях: Кэролайн Квентин
О фильме:
Кэролайн Квентин рассказывает. Эта добрая сказка специальной группы о детях животных, родившиеся в некоторых холодных и самых жестоких местах на Земле. Мы следим за взлетами и падениями, невозможно симпатичных и отважных детей императорских пингвинов, обезьян, белых медведей, песцов, северных оленей и выдр. И выяснить, что нужно, чтобы выжить в первый год жизни в мире снега и льда, с небольшой помощью от семьи и друзей.

Страна: Великобритания
Продолжительность: 00:54:06
Перевод: Авторский одноголосый закадровый (Исарев)
Дата релиза: 30.09.2013

Файл
Кодек: H.264
Качество: BDRip (AVC) (Blu-Ray Remux (1080p))
Видео: MPEG-4 AVC, 1500 Кбит/с, 1024x576
Звук: Русский (AC3, 6 ch, 448 Кбит/с), английский (AC3, 2 ch, 192 Кбит/с)

Общее
Уникальный идентификатор : 246220137092188883489184557805388152227 (0xB93C4603AED74040ABA409BC1A93BDA3)
Полное имя : E:Deti.snegov.2012.x264.BDRip.(AVC).ExKinoRay.mkv
Формат : Matroska
Размер файла : 829 Мбайт
Продолжительность : 54 м.
Общий поток : 2142 Кбит/сек
Название фильма : Deti.snegov.2012.x264.BDRip.(AVC).ExKinoRay
Дата кодирования : UTC 2013-09-30 12:21:22
Программа кодирования : mkvmerge v4.0.0 ('The Stars were mine') сборка от Jun 6 2010 16:18:42
Библиотека кодирования : libebml v1.0.0 + libmatroska v1.0.0

Видео
Идентификатор : 1
Формат : AVC
Формат/Информация : Advanced Video Codec
Профиль формата : High@L4.1
Параметр CABAC формата : Да
Параметр ReFrames формата : 8 кадров
Параметры GOP формата : M=9, N=25
Идентификатор кодека : V_MPEG4/ISO/AVC
Продолжительность : 54 м.
Битрейт : 1500 Кбит/сек
Ширина : 1024 пикс.
Высота : 576 пикс.
Соотношение сторон : 16:9
Частота кадров : 23,976 кадр/сек
Цветовое пространство : YUV
Подвыборка цветности : 4:2:0
Битовая глубина : 8 бит
Тип развёртки : Прогрессивная
Бит/(Пиксели*Кадры) : 0.106
Размер потока : 565 Мбайт (68%)
Заголовок : Rip by Enigma-Vladislav71
Библиотека кодирования : x264 core 129 r2245 bc13772
Настройки программы : cabac=1 / ref=8 / deblock=1:-2:-1 / analyse=0x3:0x133 / me=umh / subme=10 / psy=1 / psy_rd=1.00:0.00 / mixed_ref=1 / me_range=32 / chroma_me=1 / trellis=2 / 8x8dct=1 / cqm=0 / deadzone=21,11 / fast_pskip=0 / chroma_qp_offset=-2 / threads=3 / lookahead_threads=1 / sliced_threads=0 / nr=0 / decimate=0 / interlaced=0 / bluray_compat=0 / constrained_intra=0 / bframes=8 / b_pyramid=2 / b_adapt=2 / b_bias=0 / direct=3 / weightb=1 / open_gop=0 / weightp=2 / keyint=240 / keyint_min=23 / scenecut=40 / intra_refresh=0 / rc_lookahead=40 / rc=2pass / mbtree=1 / bitrate=1500 / ratetol=1.0 / qcomp=0.60 / qpmin=10 / qpmax=51 / qpstep=4 / cplxblur=20.0 / qblur=0.5 / ip_ratio=1.40 / aq=2:1.00
Язык : English

Аудио #1
Идентификатор : 2
Формат : AC-3
Формат/Информация : Audio Coding 3
Расширение режима : CM (complete main)
Идентификатор кодека : A_AC3
Продолжительность : 54 м.
Вид битрейта : Постоянный
Битрейт : 448 Кбит/сек
Каналы : 6 каналов
Расположение каналов : Front: L C R, Side: L R, LFE
Частота : 48,0 КГц
Битовая глубина : 16 бит
Метод сжатия : С потерями
Размер потока : 173 Мбайт (21%)
Язык : Russian

Аудио #2
Идентификатор : 3
Формат : AC-3
Формат/Информация : Audio Coding 3
Расширение режима : CM (complete main)
Идентификатор кодека : A_AC3
Продолжительность : 54 м.
Вид битрейта : Постоянный
Битрейт : 192 Кбит/сек
Каналы : 2 канала
Расположение каналов : Front: L R
Частота : 48,0 КГц
Битовая глубина : 16 бит
Метод сжатия : С потерями
Размер потока : 74,3 Мбайт (9%)
Язык : English

Меню
00:00:00.000 : en:Chapter 01
00:01:19.077 : en:Chapter 02
00:06:51.910 : en:Chapter 03
00:12:33.335 : en:Chapter 04
00:16:57.349 : en:Chapter 05
00:19:32.796 : en:Chapter 06
00:25:12.594 : en:Chapter 07
00:29:24.094 : en:Chapter 08
00:34:07.210 : en:Chapter 09
00:36:44.827 : en:Chapter 10
00:41:26.692 : en:Chapter 11
00:46:55.813 : en:Chapter 12
00:53:30.206 : en:Chapter 13



Релиз от:

Авторы релиза:



   Похожие торренты   Торрент   Размер 
В этой теме нет новых непрочитанных сообщений. Дети снегов / Snow Babies (2012) BDRip 720p от NNNB | D,A

43 | 17

2.18 ГБ

В этой теме нет новых непрочитанных сообщений. Дети воды / The Water Babies (1978) DVDRip

35 | 12

1.19 ГБ

В этой теме нет новых непрочитанных сообщений. BBC: Мир природы - Снежный барс / BBC: Nature World - Snow Leopard [27x01] (2007) BDRip (720p) от ExKinoRay

13 | 4

1.36 ГБ

В этой теме нет новых непрочитанных сообщений. BBC: Снежный барс: Мифы и реальность / Natural World: Snow Leopard - Beyond the Myth (2007) DVDRip (BDRip) от ExKinoRay

13 | 4

699.71 МБ

В этой теме нет новых непрочитанных сообщений. Малыши / Babies / Bébé(s) (2010) BDRip

31 | 6

4.37 ГБ

В этой теме нет новых непрочитанных сообщений. Малыши / Bébé(s) / Babies (2010) BDRip

602 | 17

1.45 ГБ

В этой теме нет новых непрочитанных сообщений. VA - Let It Snow (2011) MP3 от BestSound ExKinoRay

1 | 2

108.66 МБ




Вы не можете начинать темы
Вы не можете отвечать на сообщения
Вы не можете редактировать свои сообщения
Вы не можете удалять свои сообщения
Вы не можете добавлять вложения

Перейти:  
Для Мосгорсуда, Роскомнадзора и рекламодателей: mosgorsud-torrent[собачка]yandex.ru
 Вход
ppkBB3cker v.2 © 2008-2014 @ PPK
[ Time : 0.047s | 15 Queries | GZIP : Off ]

Торрент трекер RUTOR.IN, Не можете зайти на rutor.org? Какой новый адрес рутор? Какое зеркало рутор? Не работает rutor.org и зеркала? Тогда наш торрент специально для вас. Rutor.in неофициальное зеркало rutor. В случае если у Вас заблокирован rutor или вдруг Вы не можете на него зайти, то Вы без труда сможете скачать бесплатно и без рекламы последние новинки кино, игр, сериалов и прочего у нас, на Rutor.in. Не нужно использовать прокси, чтобы зайти на рутор, достаточно воспользоваться нашим ресурсом. Все новые фильмы, игры, сериалы, книги и музыка за 2013 и 2014 годы через торрент бесплатно. Скачивайте фильмы в хорошем качестве, игры для пк, xbox, playstation без регистрации. У нас вы найдете новые Зарубежные сериалы и Русские сериалы 2013, 2014, 2015 годов. Оставайтесь с нами, качайте любимые фильмы, игры, сериалы, книги и музыку.