img image001 image001 image001 image001 image001 image001 image001 image001 image001 image001 image001 image001 image001 image001 image001

Planets Sun Sun Sun
Статистика раздачи
Автор: PriZraK | Размер: 6.88 ГБ | Добавлен: 15 фев 2014
Раздают: 7    Качают: 19
Скачать торрент
Скачать торрент
Описание торрента

СообщениеДобавлено: 15 фев 2014 



Информация о фильме
Название: Африканские кошки: Королевство смелости
Оригинальное название: DisneyNature: African Cats
Жанр: документальный, приключения
Год выхода: 2011
Режиссер: Аластер Фовергилл, Кейт Шолей

О фильме:
Эта документальная лента покажет нам трех матерей — львицу, леопарда и гепарда. Поскольку они обитают на Великих равнинах Африки, этот фильм покажет, как же этим великолепным животным удается выжить с помощью их силы и хитрости, вместе с тем, защищая и преподавая детёнышам азы выживания.


Страна: США
Студия: Walt Disney Studios
Продолжительность: 01:29:24
Перевод: Дублированный, профессиональный (одноголосый закадровый)

Файл
Кодек: h.264
Качество: BDRip (720p)
Видео: 8241 Кбит/с, 1280x720, 23.976 кадр/с

Звук:
• №1: Русский (AC3, 6 ch, 640 Кбит/с) Дублированный
• №2: Русский (AC3, 6 ch, 640 Кбит/с) Профессиональный одноголосый (Студия "Омикрон")
• №3: Украинский (AC3, 6 ch, 640 Кбит/с) Профессиональный одноголосый (Студия "Омикрон")
• №4: Английский (AC3, 6 ch, 640 Кбит/с)

Субтитры: Русские (lingua.pura, fishborn), английские

Видеоряд от HDClub

Полное имя : African.Cats.2011.x264.BDRip.(720p).AC3.Rus.Ukr.Eng.mkv
Формат : Matroska
Версия формата : Version 4 / Version 2
Размер файла : 6,88 Гбайт
Продолжительность : 1 ч. 29 м.
Общий поток : 11,0 Мбит/сек
Название фильма : Африканские кошки: Королевство смелости | DisneyNature: African Cats [2011] -=BDRip (720p)=-
Дата кодирования : UTC 2013-10-06 10:47:28
Программа кодирования : mkvmerge v6.1.0 ('Old Devil') built on Mar 2 2013 14:32:37
Библиотека кодирования : libebml v1.3.0 + libmatroska v1.4.0

Видео
Идентификатор : 1
Формат : AVC
Формат/Информация : Advanced Video Codec
Профиль формата : High@L4.1
Параметр CABAC формата : Да
Параметр ReFrames формата : 6 кадров
Идентификатор кодека : V_MPEG4/ISO/AVC
Продолжительность : 1 ч. 29 м.
Битрейт : 8241 Кбит/сек
Ширина : 1280 пикселей
Высота : 720 пикселей
Соотношение сторон : 16:9
Частота кадров : 23,976 кадра/сек
Цветовое пространство : YUV
Субдискретизация насыщенности : 4:2:0
Битовая глубина : 8 бит
Тип развёртки : Прогрессивная
Бит/(Пиксели*Кадры) : 0.373
Размер потока : 5,15 Гбайт (75%)
Заголовок : African Cats
Библиотека кодирования : x264 core 119 r2106 07efeb4
Настройки программы : cabac=1 / ref=6 / deblock=1:-3:-3 / analyse=0x3:0x113 / me=umh / subme=10 / psy=1 / psy_rd=1.00:0.00 / mixed_ref=1 / me_range=32 / chroma_me=1 / trellis=2 / 8x8dct=1 / cqm=0 / deadzone=21,11 / fast_pskip=0 / chroma_qp_offset=-2 / threads=6 / sliced_threads=0 / nr=0 / decimate=1 / interlaced=0 / bluray_compat=0 / constrained_intra=0 / bframes=7 / b_pyramid=2 / b_adapt=2 / b_bias=0 / direct=1 / weightb=1 / open_gop=0 / weightp=2 / keyint=250 / keyint_min=23 / scenecut=40 / intra_refresh=0 / rc_lookahead=40 / rc=crf / mbtree=0 / crf=16.4 / qcomp=0.60 / qpmin=10 / qpmax=51 / qpstep=4 / vbv_maxrate=50000 / vbv_bufsize=62500 / crf_max=0.0 / nal_hrd=none / ip_ratio=1.40 / pb_ratio=1.30 / aq=1:0.60
Язык : English

Аудио #1
Идентификатор : 2
Формат : AC-3
Формат/Информация : Audio Coding 3
Расширение режима : CM (complete main)
Идентификатор кодека : A_AC3
Продолжительность : 1 ч. 29 м.
Вид битрейта : Постоянный
Битрейт : 640 Кбит/сек
Каналы : 6 каналов
Расположение каналов : Front: L C R, Side: L R, LFE
Частота : 48,0 КГц
Битовая глубина : 16 бит
Метод сжатия : С потерями
Размер потока : 409 Мбайт (6%)
Заголовок : Дублированный AC3 5.1 @ 640 kbps
Язык : Russian

Аудио #2
Идентификатор : 3
Формат : AC-3
Формат/Информация : Audio Coding 3
Расширение режима : CM (complete main)
Идентификатор кодека : A_AC3
Продолжительность : 1 ч. 29 м.
Вид битрейта : Постоянный
Битрейт : 640 Кбит/сек
Каналы : 6 каналов
Расположение каналов : Front: L C R, Side: L R, LFE
Частота : 48,0 КГц
Битовая глубина : 16 бит
Метод сжатия : С потерями
Размер потока : 409 Мбайт (6%)
Заголовок : Профессиональный одноголосый [Студия "Омикрон"] AC3 5.1 @ 640 kbps
Язык : Russian

Аудио #3
Идентификатор : 4
Формат : AC-3
Формат/Информация : Audio Coding 3
Расширение режима : CM (complete main)
Идентификатор кодека : A_AC3
Продолжительность : 1 ч. 29 м.
Вид битрейта : Постоянный
Битрейт : 640 Кбит/сек
Каналы : 6 каналов
Расположение каналов : Front: L C R, Side: L R, LFE
Частота : 48,0 КГц
Битовая глубина : 16 бит
Метод сжатия : С потерями
Размер потока : 409 Мбайт (6%)
Заголовок : Профессиональный одноголосый [Студия "Омикрон"] AC3 5.1 @ 640 kbps
Язык : Ukrainian

Аудио #4
Идентификатор : 5
Формат : AC-3
Формат/Информация : Audio Coding 3
Расширение режима : CM (complete main)
Идентификатор кодека : A_AC3
Продолжительность : 1 ч. 29 м.
Вид битрейта : Постоянный
Битрейт : 640 Кбит/сек
Каналы : 6 каналов
Расположение каналов : Front: L C R, Side: L R, LFE
Частота : 48,0 КГц
Битовая глубина : 16 бит
Метод сжатия : С потерями
Размер потока : 409 Мбайт (6%)
Заголовок : AC3 5.1 @ 640 kbps
Язык : English

Текст #1
Идентификатор : 6
Формат : UTF-8
Идентификатор кодека : S_TEXT/UTF8
Идентификатор кодека/Информация : UTF-8 Plain Text
Заголовок : lingua.pura
Язык : Russian

Текст #2
Идентификатор : 7
Формат : UTF-8
Идентификатор кодека : S_TEXT/UTF8
Идентификатор кодека/Информация : UTF-8 Plain Text
Заголовок : fishborn
Язык : Russian

Текст #3
Идентификатор : 8
Формат : UTF-8
Идентификатор кодека : S_TEXT/UTF8
Идентификатор кодека/Информация : UTF-8 Plain Text
Заголовок : SDH
Язык : English

Меню
00:00:00.000 : en:1. The Heart of Africa
00:04:52.917 : en:2. The Hunt for Survival
00:08:54.158 : en:3. Competition
00:12:56.317 : en:4. Teamwork
00:19:59.573 : en:5. Protection
00:33:13.700 : en:6. Layla's Sacrifice
00:41:49.840 : en:7. New Bonds
00:52:05.038 : en:8. Crossing the River
00:59:15.552 : en:9. Kali's Rule
01:02:44.260 : en:10. Training in the Pride Lands
01:14:56.658 : en:11. A Mother's Love
01:23:25.792 : en:12. End Credits





   Похожие торренты   Торрент   Размер 
В этой теме нет новых непрочитанных сообщений. Африканские кошки: Королевство смелости / DisneyNature: African Cats (2011) BDRip от HQCLUB

19 | 1

1.45 ГБ

В этой теме нет новых непрочитанных сообщений. Африканские кошки: Королевство смелости / DisneyNature: African Cats (2011) BDRip 1080p от qzqz72

1 | 5

4.65 ГБ

В этой теме нет новых непрочитанных сообщений. Африканские кошки: Королевство смелости / African Cats (2011) BDRip-AVC от New-Team | P1

48 | 8

1.46 ГБ

В этой теме нет новых непрочитанных сообщений. Африканские кошки: Королевство смелости / African Cats (2011) BDRip от New-Team | P1

14 | 3

747.1 МБ

В этой теме нет новых непрочитанных сообщений. Африканские кошки: Королевство смелости / African Cats (2011) BDRip-AVC от Xixidok

3 | 1

1.58 ГБ

В этой теме нет новых непрочитанных сообщений. Африканские кошки: Королевство смелости / African Cats (2011) BDRip | Дубляж

8 | 1

1.37 ГБ

В этой теме нет новых непрочитанных сообщений. Африканские кошки: Королевство смелости / African Cats (2011) BDRip от Xixidok

3 | 1

699.29 МБ




Вы не можете начинать темы
Вы не можете отвечать на сообщения
Вы не можете редактировать свои сообщения
Вы не можете удалять свои сообщения
Вы не можете добавлять вложения

Перейти:  
Для Мосгорсуда, Роскомнадзора и рекламодателей: mosgorsud-torrent[собачка]yandex.ru
 Вход
ppkBB3cker v.2 © 2008-2014 @ PPK
[ Time : 0.070s | 16 Queries | GZIP : Off ]

Торрент трекер RUTOR.IN, Не можете зайти на rutor.org? Какой новый адрес рутор? Какое зеркало рутор? Не работает rutor.org и зеркала? Тогда наш торрент специально для вас. Rutor.in неофициальное зеркало rutor. В случае если у Вас заблокирован rutor или вдруг Вы не можете на него зайти, то Вы без труда сможете скачать бесплатно и без рекламы последние новинки кино, игр, сериалов и прочего у нас, на Rutor.in. Не нужно использовать прокси, чтобы зайти на рутор, достаточно воспользоваться нашим ресурсом. Все новые фильмы, игры, сериалы, книги и музыка за 2013 и 2014 годы через торрент бесплатно. Скачивайте фильмы в хорошем качестве, игры для пк, xbox, playstation без регистрации. У нас вы найдете новые Зарубежные сериалы и Русские сериалы 2013, 2014, 2015 годов. Оставайтесь с нами, качайте любимые фильмы, игры, сериалы, книги и музыку.
cron