img image001 image001 image001 image001 image001 image001 image001 image001 image001 image001 image001 image001 image001 image001 image001

Planets Sun Sun Sun
Статистика раздачи
Автор: PriZraK | Размер: 7.76 ГБ | Добавлен: 16 фев 2014
Раздают: 9    Качают: 4
Скачать торрент
Скачать торрент
Описание торрента

СообщениеДобавлено: 16 фев 2014 



Информация о фильме
Русское название: Птицы 2: Путешествие на край света
Оригинальное название: La marche de l'empereur
Год выхода: 2004
Жанр: документальный, семейный, научно-познавательный
Режиссер: Люк Жаке
Выпущено: Франция, Alliance de Production Cinematographique (APC), APC, Bonne Pioche, Buena Vista International Film Production France, Canal+ [fr], L'Institut Polare Français Paul Emile Victor
Продолжительность: 01:22:15
В ролях:Шарль Берлинг, Романа Боринже, Жюль Ситрук, Амитабх Баччан, Ёста Экман, Фиорелло, Морган Фримен, Софи Гробёль, Хикари, Исида, Рюноскэ Камики
Перевод: Авторский Одноголосый закадровый, Ю.Сербин



Сюжет фильма

Премия «Оскар» за Лучший документальный фильм, 2006г.

Каждую зиму, вот уже в течение многих тысячелетий, в ледяных пустынях Антарктики — самой негостеприимной части Земли — происходит поистине удивительное путешествие. Тысячи императорских пингвинов покидают надежную глубину океана, выходят на холодную землю и начинают свое долгое путешествие вглубь настолько сурового и морозного континента, что там нет никакой жизни. Но именно туда идут цепочкой, друг за другом императорские пингвины. Несмотря на слепящие снежные бури, они решительно и упрямо идут туда, где должны дать жизнь потомству и обеспечить выживание вида.


Файл
Качество: BDRip 1080p (исходник Blu-ray Disc)
Видео: 1920x1080, ~12600 Кбит/сек, 23,976 кадр/сек, AVC, x264, High@L4.1, 0.253 Бит/[Пиксели*Кадры], 2pass
Аудио 1: AC-3, 640 Кбит/сек, 6 канала(ов), 48,0 КГц - Авторский Одноголосый закадровый, Ю.Сербин
Аудио 2: AC-3, 640 Кбит/сек, 6 канала(ов), 48,0 КГц - Оригинал / Английский
Чаптеры: есть


Автор Рипа:







Format : Matroska
Format version : Version 2
File size : 7.76 GiB
Duration : 1h 20mn
Overall bit rate : 13.8 Mbps
Movie name : Птицы 2.Путешествие на край света.(2004).BDRip.1080p.[denis100]
Encoded date : UTC 2013-10-12 09:43:38
Writing application : mkvmerge v5.8.0 ('No Sleep / Pillow') built on Sep 2 2012 15:37:04
Writing library : libebml v1.2.3 + libmatroska v1.3.0

Video
ID : 1
Format : AVC
Format/Info : Advanced Video Codec
Format profile : High@L4.1
Format settings, CABAC : Yes
Format settings, ReFrames : 4 frames
Codec ID : V_MPEG4/ISO/AVC
Duration : 1h 20mn
Bit rate : 12.6 Mbps
Width : 1 920 pixels
Height : 1 080 pixels
Display aspect ratio : 16:9
Frame rate mode : Constant
Frame rate : 23.976 fps
Color space : YUV
Chroma subsampling : 4:2:0
Bit depth : 8 bits
Scan type : Progressive
Bits/(Pixel*Frame) : 0.253
Stream size : 6.88 GiB (89%)
Title : Птицы 2.Путешествие на край света.(2004).BDRip.1080p.[denis100]
Writing library : x264 core 138 r2358 9e941d1
Encoding settings : cabac=1 / ref=4 / deblock=1:-3:-3 / analyse=0x3:0x133 / me=umh / subme=11 / psy=1 / psy_rd=1.00:0.10 / mixed_ref=1 / me_range=32 / chroma_me=1 / trellis=2 / 8x8dct=1 / cqm=0 / deadzone=21,11 / fast_pskip=0 / chroma_qp_offset=-3 / threads=6 / lookahead_threads=1 / sliced_threads=0 / nr=0 / decimate=0 / interlaced=0 / bluray_compat=0 / constrained_intra=0 / bframes=8 / b_pyramid=2 / b_adapt=2 / b_bias=0 / direct=3 / weightb=1 / open_gop=0 / weightp=2 / keyint=240 / keyint_min=23 / scenecut=40 / intra_refresh=0 / rc=2pass / mbtree=0 / bitrate=12561 / ratetol=1.0 / qcomp=0.60 / qpmin=0 / qpmax=69 / qpstep=4 / cplxblur=20.0 / qblur=0.5 / ip_ratio=1.40 / pb_ratio=1.30 / aq=1:0.80
Language : English
Default : Yes
Forced : No

Audio #1
ID : 2
Format : AC-3
Format/Info : Audio Coding 3
Mode extension : CM (complete main)
Format settings, Endianness : Big
Codec ID : A_AC3
Duration : 1h 20mn
Bit rate mode : Constant
Bit rate : 640 Kbps
Channel count : 6 channels
Channel positions : Front: L C R, Side: L R, LFE
Sampling rate : 48.0 KHz
Bit depth : 16 bits
Compression mode : Lossy
Stream size : 367 MiB (5%)
Title : Одноголосый закадровый, Ю.Сербин
Language : Russian
Default : Yes
Forced : No

Audio #2
ID : 3
Format : AC-3
Format/Info : Audio Coding 3
Mode extension : CM (complete main)
Format settings, Endianness : Big
Codec ID : A_AC3
Duration : 1h 20mn
Bit rate mode : Constant
Bit rate : 640 Kbps
Channel count : 6 channels
Channel positions : Front: L C R, Side: L R, LFE
Sampling rate : 48.0 KHz
Bit depth : 16 bits
Compression mode : Lossy
Stream size : 367 MiB (5%)
Title : Английская
Language : English
Default : No
Forced : No

Menu
00:00:00.000 : en:00:00:00.000
00:04:09.082 : en:00:04:09.082
00:09:50.757 : en:00:09:50.757
00:14:26.491 : en:00:14:26.491
00:19:29.418 : en:00:19:29.418
00:22:59.670 : en:00:22:59.670
00:26:47.523 : en:00:26:47.523
00:31:46.905 : en:00:31:46.905
00:35:47.687 : en:00:35:47.687
00:40:28.301 : en:00:40:28.301
00:44:16.237 : en:00:44:16.237
00:47:57.708 : en:00:47:57.708
00:53:46.557 : en:00:53:46.557
00:57:18.060 : en:00:57:18.060
01:01:25.724 : en:01:01:25.724
01:03:22.132 : en:01:03:22.132
01:07:44.560 : en:01:07:44.560
01:12:26.884 : en:01:12:26.884
01:17:07.832 : en:01:17:07.832





   Похожие торренты   Торрент   Размер 
В этой теме нет новых непрочитанных сообщений. Птицы 2: Путешествие на край света / March of the Penguins / La Marche de l'empereur (2004) BDRip от HQ-ViDEO

24 | 2

1.46 ГБ

В этой теме нет новых непрочитанных сообщений. Птицы 2: Путешествие на Край Света / La Marche de lempereur (2004) BDRip от CGInfo

0 | 2

4.63 ГБ

В этой теме нет новых непрочитанных сообщений. Путешествие на край света с Артом Вольфом / Travels to the Edge with Art Wolfe [01-02x01-26 из 26] (2007-2008) HDTVRip от GeneralFilm | D

29 | 7

6.89 ГБ

В этой теме нет новых непрочитанных сообщений. Путешествие на край света с Артом Вольфом / Travels to the Edge with Art Wolfe [01-02x01-25 из 26] (2007-2008) HDTVRip от GeneralFilm | D

11 | 11

6.62 ГБ

В этой теме нет новых непрочитанных сообщений. Путешествие на край света с Артом Вольфом / Travels to the Edge with Art Wolfe [01-02x01-23 из 26] (2007-2008) HDTVRip от GeneralFilm | D

25 | 16

6.09 ГБ

В этой теме нет новых непрочитанных сообщений. Край света / The Edge of the World (1937) BDRip

15 | 9

4.47 ГБ

В этой теме нет новых непрочитанных сообщений. National Geographic: Путешествие на край Вселенной / National Geographic: Journey to the Edge of the Universe (2008) BDRip 1080p

156 | 22

6.82 ГБ




Вы не можете начинать темы
Вы не можете отвечать на сообщения
Вы не можете редактировать свои сообщения
Вы не можете удалять свои сообщения
Вы не можете добавлять вложения

Перейти:  
Для Мосгорсуда, Роскомнадзора и рекламодателей: mosgorsud-torrent[собачка]yandex.ru
 Вход
ppkBB3cker v.2 © 2008-2014 @ PPK
[ Time : 0.055s | 15 Queries | GZIP : Off ]

Торрент трекер RUTOR.IN, Не можете зайти на rutor.org? Какой новый адрес рутор? Какое зеркало рутор? Не работает rutor.org и зеркала? Тогда наш торрент специально для вас. Rutor.in неофициальное зеркало rutor. В случае если у Вас заблокирован rutor или вдруг Вы не можете на него зайти, то Вы без труда сможете скачать бесплатно и без рекламы последние новинки кино, игр, сериалов и прочего у нас, на Rutor.in. Не нужно использовать прокси, чтобы зайти на рутор, достаточно воспользоваться нашим ресурсом. Все новые фильмы, игры, сериалы, книги и музыка за 2013 и 2014 годы через торрент бесплатно. Скачивайте фильмы в хорошем качестве, игры для пк, xbox, playstation без регистрации. У нас вы найдете новые Зарубежные сериалы и Русские сериалы 2013, 2014, 2015 годов. Оставайтесь с нами, качайте любимые фильмы, игры, сериалы, книги и музыку.