img image001 image001 image001 image001 image001 image001 image001 image001 image001 image001 image001 image001 image001 image001 image001

Planets Sun Sun Sun
Статистика раздачи
Автор: PriZraK | Размер: 7.42 ГБ | Добавлен: 15 фев 2014
Раздают: 1    Качают: 5
Скачать торрент
Скачать торрент
Описание торрента

СообщениеДобавлено: 15 фев 2014 

Информация о фильме
Название: Столкновение континентов
Оригинальное название: Clash of the Continents
Год выхода: 2010
Жанр: Документальный
Режиссер: Майк Ибиджи

О фильме:
Представьте, что вы астронавт, который в далеком будущем отважно отправился в космическое путешествие на край Вселенной. И вот 250 млн. лет спустя, вы возвращаетесь назад. Все, что вы помните, исчезло. Пройдет ли наша планета полный цикл перемен, как предсказывает большинство ученых? Сложится ли вся суша воедино, чтобы образовать один гигантский континент? Возможно, непреодолимые силы геологии, уже стерли с лица Земли все присутствие человека - при помощи воды, ветра и льда. Возможно от нас не останется ничего, кроме окаменелых останков. 250 млн. лет спустя, после нашего расцвета... какие геологические свидетельства смогут доказать, что мы когда-то жили?
Страна: Новая Зеландия, Япония, США
Студия: Natural History New Zealand Ltd, NHK, LLC and NGC Network US
Продолжительность: 2x ~ 00:45:12
Перевод: Дублированный

Файл
Кодек: x264
Качество: HDTVRip 1080p
Видео: MPEG-4 AVC, 11500 Кбит/с, 1920x1080, 25.000 кадр/с
Звук: Русский (AC3, 6 ch, 256 Кбит/с)
1. Конец Рая / End of Eden
Земля... 250 млн. лет спустя. Космический странник возвращается домой. Пока он находился в своем корабле, перемещаясь со скоростью близкой к скорости света, относительность сотворила свои известные чудеса. Для него прошло всего несколько десятилетий, но снаружи изменилась вся Вселенная. За то время, пока он отсутствовал, Земля значительно постарела, пейзаж, представший перед его глазами, ему незнаком... Ему потребуется помощь всех технических приспособлений корабля, чтобы понять, что здесь случилось.
2. Судьба человечества / Fate of Man
Земля... 250 млн. лет спустя. Одинокий космический странник спускается на планету. Он проделал долгий путь, чтобы сюда попасть, и теперь опасается, что может остаться один. Все свидетельства и памятники его прошлого разрушены, унесены ветрами времен. И тогда он поймет, что ад спустился на Землю...

Семпл
Формат : Matroska
Версия формата : Version 2
Размер файла : 3,71 Гбайт
Продолжительность : 45 м.
Общий поток : 11,8 Мбит/сек
Название фильма : Release for MediaClub by AlexAndr92
Дата кодирования : UTC 2013-10-29 18:40:09
Программа кодирования : mkvmerge v4.0.0 ('The Stars were mine') сборка от Jun 6 2010 16:18:42
Библиотека кодирования : libebml v1.0.0 + libmatroska v1.0.0

Видео
Идентификатор : 1
Формат : AVC
Формат/Информация : Advanced Video Codec
Профиль формата : High@L4.1
Параметр CABAC формата : Да
Параметр ReFrames формата : 4 кадра
Идентификатор кодека : V_MPEG4/ISO/AVC
Продолжительность : 45 м.
Битрейт : 11,5 Мбит/сек
Ширина : 1920 пикселей
Высота : 1080 пикселей
Соотношение сторон : 16:9
Режим частоты кадров : Постоянный
Частота кадров : 25,000 кадров/сек
Цветовое пространство : YUV
Субдискретизация насыщенности : 4:2:0
Битовая глубина : 8 бит
Тип развёртки : Прогрессивная
Бит/(Пиксели*Кадры) : 0.222
Размер потока : 3,56 Гбайт (96%)
Библиотека кодирования : x264 core 130 r2273 b3065e6
Настройки программы : cabac=1 / ref=4 / deblock=1:-3:-3 / analyse=0x3:0x133 / me=umh / subme=11 / psy=1 / psy_rd=1.00:0.15 / mixed_ref=1 / me_range=32 / chroma_me=1 / trellis=2 / 8x8dct=1 / cqm=0 / deadzone=21,11 / fast_pskip=0 / chroma_qp_offset=-3 / threads=6 / lookahead_threads=1 / sliced_threads=0 / nr=0 / decimate=0 / interlaced=0 / bluray_compat=0 / constrained_intra=0 / bframes=8 / b_pyramid=2 / b_adapt=2 / b_bias=0 / direct=3 / weightb=1 / open_gop=0 / weightp=2 / keyint=250 / keyint_min=25 / scenecut=40 / intra_refresh=0 / rc=2pass / mbtree=0 / bitrate=11500 / ratetol=1.0 / qcomp=0.60 / qpmin=0 / qpmax=69 / qpstep=4 / cplxblur=20.0 / qblur=0.5 / ip_ratio=1.40 / pb_ratio=1.30 / aq=1:1.00
Default : Нет
Forced : Нет

Аудио
Идентификатор : 2
Формат : AC-3
Формат/Информация : Audio Coding 3
Расширение режима : CM (complete main)
Параметр Endianness формата : Big
Идентификатор кодека : A_AC3
Продолжительность : 45 м.
Вид битрейта : Постоянный
Битрейт : 256 Кбит/сек
Каналы : 6 каналов
Расположение каналов : Front: L C R, Side: L R, LFE
Частота : 48,0 КГц
Битовая глубина : 16 бит
Метод сжатия : С потерями
Размер потока : 82,8 Мбайт (2%)
Default : Нет
Forced : Нет



Релиз от: | AlexAndr92



   Похожие торренты   Торрент   Размер 
В этой теме нет новых непрочитанных сообщений. National Geographic. Столкновение континентов / Clash of the Continents (2010) HDRip от -=HD-NET=-

10 | 5

1.18 ГБ

В этой теме нет новых непрочитанных сообщений. National Geographic. Столкновение континентов / Clash of the Continents / Scontro Di Continenti [01-02 из 02] (2010) HDRip-AVC от ExKinoRay

10 | 2

2.14 ГБ

В этой теме нет новых непрочитанных сообщений. National Geographic. Столкновение континентов / Clash of the Continents / Scontro Di Continenti [01-02 из 02] (2010) HDRip от ExKinoRay

4 | 7

1.37 ГБ

В этой теме нет новых непрочитанных сообщений. National Geographic: Столкновение континентов. Конец Рая / National Geographic: Clash of the Continents. End of Eden (2010) SATRip от tenow.

2 | 1

480.89 МБ

В этой теме нет новых непрочитанных сообщений. National Geographic: Столкновение континентов. Судьба человечества / National Geographic: Clash of the Continents. Fate of man (2010) TVRip от tenow

0 | 2

588.5 МБ

В этой теме нет новых непрочитанных сообщений. С точки зрения науки: Столкновение Континентов / National Geographic: Colliding Continents (2006) TVRip

0 | 20

1.11 ГБ

В этой теме нет новых непрочитанных сообщений. BBC: Становление континентов / BBC: Rise of the Continents [1-4 из 4] (2013) HDTVRip от Rulya74

201 | 24

2.75 ГБ




Вы не можете начинать темы
Вы не можете отвечать на сообщения
Вы не можете редактировать свои сообщения
Вы не можете удалять свои сообщения
Вы не можете добавлять вложения

Перейти:  
Для Мосгорсуда, Роскомнадзора и рекламодателей: mosgorsud-torrent[собачка]yandex.ru
 Вход
ppkBB3cker v.2 © 2008-2014 @ PPK
[ Time : 0.043s | 15 Queries | GZIP : Off ]

Торрент трекер RUTOR.IN, Не можете зайти на rutor.org? Какой новый адрес рутор? Какое зеркало рутор? Не работает rutor.org и зеркала? Тогда наш торрент специально для вас. Rutor.in неофициальное зеркало rutor. В случае если у Вас заблокирован rutor или вдруг Вы не можете на него зайти, то Вы без труда сможете скачать бесплатно и без рекламы последние новинки кино, игр, сериалов и прочего у нас, на Rutor.in. Не нужно использовать прокси, чтобы зайти на рутор, достаточно воспользоваться нашим ресурсом. Все новые фильмы, игры, сериалы, книги и музыка за 2013 и 2014 годы через торрент бесплатно. Скачивайте фильмы в хорошем качестве, игры для пк, xbox, playstation без регистрации. У нас вы найдете новые Зарубежные сериалы и Русские сериалы 2013, 2014, 2015 годов. Оставайтесь с нами, качайте любимые фильмы, игры, сериалы, книги и музыку.