img image001 image001 image001 image001 image001 image001 image001 image001 image001 image001 image001 image001 image001 image001 image001

Planets Sun Sun Sun
Статистика раздачи
Автор: PriZraK | Размер: 14.44 ГБ | Добавлен: 15 фев 2014
Раздают: 29    Качают: 4
Скачать торрент
Скачать торрент
Описание торрента

СообщениеДобавлено: 15 фев 2014 

Информация о фильме
Название: Тайная жизнь хищников
Оригинальное название: Secret Life of Predators
Год выхода: 2013
Жанр: Документальный
Режиссер: Джаред Липворт

О фильме:
Это сенсационное погружение в среду самых страшных хищников планеты раскрывается через невероятную съемку и самые современные технологии кинопроизводства ... некоторые приемы съемки были изобретены специально для этого новаторского телепроекта.

1. Тайная жизнь хищников. На виду: Хищники, обитающие на открытых пространствах, должны уметь прятаться будучи у всех на виду или же, как полосатый мангуст, брать числом. 12+

2. Тайная жизнь хищников. В воде: В водах нашей планеты хищники всех форм и размеров встречают множество преград на пути к успеху и выживанию. 12+
3. Тайная жизнь хищников. На границе: Обитающие на границах гор, лесов, рек и океанов природные охотники должны иметь особые навыки, чтобы выжить. 12+

4. Тайная жизнь хищников. В лесах: Лесные хищники должны уметь жить в мире, где пища или соперники могут находиться сзади, внизу или вверху. 12+


Страна: США
Студия: National Geographic Television
Продолжительность: 4 x ~ 00:43:43
Перевод: Дублированный

Файл
Кодек: x264
Качество: HDTVRip 1080p
Видео: MPEG-4 AVC, 11500 Кбит/с, 1920x1072, 25.000 кадр/с
Звук: Русский (AC3, 2 ch, 256 Кбит/с)

Семпл
Формат : Matroska
Версия формата : Version 2
Размер файла : 3,61 Гбайт
Продолжительность : 43 м.
Общий поток : 11,8 Мбит/сек
Название фильма : Release for MediaClub by AlexAndr92
Дата кодирования : UTC 2013-10-25 18:17:54
Программа кодирования : mkvmerge v4.0.0 ('The Stars were mine') сборка от Jun 6 2010 16:18:42
Библиотека кодирования : libebml v1.0.0 + libmatroska v1.0.0

Видео
Идентификатор : 1
Формат : AVC
Формат/Информация : Advanced Video Codec
Профиль формата : High@L4.1
Параметр CABAC формата : Да
Параметр ReFrames формата : 4 кадра
Идентификатор кодека : V_MPEG4/ISO/AVC
Продолжительность : 43 м.
Битрейт : 11,5 Мбит/сек
Ширина : 1920 пикселей
Высота : 1072 пикселя
Соотношение сторон : 16:9
Режим частоты кадров : Постоянный
Частота кадров : 25,000 кадров/сек
Цветовое пространство : YUV
Субдискретизация насыщенности : 4:2:0
Битовая глубина : 8 бит
Тип развёртки : Прогрессивная
Бит/(Пиксели*Кадры) : 0.223
Размер потока : 3,46 Гбайт (96%)
Библиотека кодирования : x264 core 130 r2273 b3065e6
Настройки программы : cabac=1 / ref=4 / deblock=1:-3:-3 / analyse=0x3:0x133 / me=umh / subme=11 / psy=1 / psy_rd=1.00:0.15 / mixed_ref=1 / me_range=32 / chroma_me=1 / trellis=2 / 8x8dct=1 / cqm=0 / deadzone=21,11 / fast_pskip=0 / chroma_qp_offset=-3 / threads=6 / lookahead_threads=1 / sliced_threads=0 / nr=0 / decimate=0 / interlaced=0 / bluray_compat=0 / constrained_intra=0 / bframes=8 / b_pyramid=2 / b_adapt=2 / b_bias=0 / direct=3 / weightb=1 / open_gop=0 / weightp=2 / keyint=250 / keyint_min=25 / scenecut=40 / intra_refresh=0 / rc=2pass / mbtree=0 / bitrate=11500 / ratetol=1.0 / qcomp=0.60 / qpmin=0 / qpmax=69 / qpstep=4 / cplxblur=20.0 / qblur=0.5 / ip_ratio=1.40 / pb_ratio=1.30 / aq=1:1.00
Default : Нет
Forced : Нет

Аудио
Идентификатор : 2
Формат : AC-3
Формат/Информация : Audio Coding 3
Расширение режима : CM (complete main)
Параметр Endianness формата : Big
Идентификатор кодека : A_AC3
Продолжительность : 43 м.
Вид битрейта : Постоянный
Битрейт : 256 Кбит/сек
Каналы : 2 канала
Расположение каналов : Front: L R
Частота : 48,0 КГц
Битовая глубина : 16 бит
Метод сжатия : С потерями
Размер потока : 80,5 Мбайт (2%)
Default : Нет
Forced : Нет




Релиз от: | AlexAndr92



   Похожие торренты   Торрент   Размер 
В этой теме нет новых непрочитанных сообщений. Тайная жизнь хищников / Secret Life of Predators (2013) BDRip 1080p

74 | 19

18.4 ГБ

В этой теме нет новых непрочитанных сообщений. Тайная жизнь хищников / Secret Life of Predators [01-04 из 04] (2013) HDTVRip-AVC от F-Torrents

88 | 10

2.59 ГБ

В этой теме нет новых непрочитанных сообщений. Тайная жизнь хищников / Secret Life of Predators [01-04 из 04] (2013) HDTVRip от GeneralFilm

101 | 9

2.02 ГБ

В этой теме нет новых непрочитанных сообщений. Тайная жизнь хищников / Secret Life of Predators (2014) 1080i BD-Remux

14 | 4

39.88 ГБ

В этой теме нет новых непрочитанных сообщений. Тайная жизнь домашних животных / The Secret Life of Pets (2016) HDTVRip от MediaClub | | Line

3113 | 141

1.09 ГБ

В этой теме нет новых непрочитанных сообщений. BBC. Тайная жизнь птиц / BBC. Secret Life of Birds (2010) BDRip 1080p | D

30 | 7

17.32 ГБ

В этой теме нет новых непрочитанных сообщений. Тайная жизнь домашних животных / The Secret Life of Pets (2016) HDTV 1080p | Line

22797 | 1401

8.37 ГБ




Вы не можете начинать темы
Вы не можете отвечать на сообщения
Вы не можете редактировать свои сообщения
Вы не можете удалять свои сообщения
Вы не можете добавлять вложения

Перейти:  
Для Мосгорсуда, Роскомнадзора и рекламодателей: mosgorsud-torrent[собачка]yandex.ru
 Вход
ppkBB3cker v.2 © 2008-2014 @ PPK
[ Time : 0.043s | 15 Queries | GZIP : Off ]

Торрент трекер RUTOR.IN, Не можете зайти на rutor.org? Какой новый адрес рутор? Какое зеркало рутор? Не работает rutor.org и зеркала? Тогда наш торрент специально для вас. Rutor.in неофициальное зеркало rutor. В случае если у Вас заблокирован rutor или вдруг Вы не можете на него зайти, то Вы без труда сможете скачать бесплатно и без рекламы последние новинки кино, игр, сериалов и прочего у нас, на Rutor.in. Не нужно использовать прокси, чтобы зайти на рутор, достаточно воспользоваться нашим ресурсом. Все новые фильмы, игры, сериалы, книги и музыка за 2013 и 2014 годы через торрент бесплатно. Скачивайте фильмы в хорошем качестве, игры для пк, xbox, playstation без регистрации. У нас вы найдете новые Зарубежные сериалы и Русские сериалы 2013, 2014, 2015 годов. Оставайтесь с нами, качайте любимые фильмы, игры, сериалы, книги и музыку.