img image001 image001 image001 image001 image001 image001 image001 image001 image001 image001 image001 image001 image001 image001 image001

Planets Sun Sun Sun
Статистика раздачи
Автор: PriZraK | Размер: 746.82 МБ | Добавлен: 15 фев 2014
Раздают: 10    Качают: 4
Скачать торрент
Скачать торрент
Описание торрента

СообщениеДобавлено: 15 фев 2014 

Бавария. Сердце Германии



Год выпуска: 2011
Страна: Германия, Польша, Россия
Студия: Komplett-Media GmbH
Жанр: документальный
Продолжительность: 01:59:59

Перевод: Профессиональный (дикторский закадровый)
Субтитры: нет
Оригинальная аудиодорожка: нет

Описание:
На западе — Линдау и Боденское озеро, на востоке — национальный парк Берхтесгаден и озеро Кёнигзее, на юге Альпы, а между ними — Бавария, считающаяся красивейшей из земель Германии. Любимая земля для своих граждан, как магнитом притягивающая туристов. Горные луга, леса, озера. Идиллические пейзажи, доставляющие наслаждение всем органам чувств. Сказочные замки, построенные всемогущими Виттельсбахами во главе с Людвигом II, «безумным королем», который предпочитал слушать Вагнера и наслаждаться поэзией, нежели заниматься политикой. Самый красивый из замков стоит на вершине скалы — это неприступный Нойшванштайн. Бавария — это и прекрасные исторические города: Аугсбург — оплот семейства Фуггеров, Вюрцбург — резиденция курцфюрстов, Роттенбург-на-Таубере с десятками средневековых архитектурных памятников. Любой из уголков Баварии прельщает туристов чудесными пейзажами: Франкония, Швабия, Оберпфальц, Верхняя и Нижняя Бавария. Остановками в нашем путешествии станут такие интересные города, как Мюнхен, Нюрнберг, Регенсбург, Байройт, а также скромные, но не менее привлекательные Бамберг, Кобург и Пассау. И, наконец, святилища и монастыри: Роттенбух, Андехс и Вельтенбург...





Исходник: DVD5 R5
Тип релиза: DVDRip
Контейнер: AVI

Видео: 640x352 (16:9), 25 fps, XviD ~ 733 kbps avg, 0.133 bit/pixel
Аудио: 48 kHz, MP3 2.0, 128.00 kbps

Раздача от:
Общее
Полное имя : Bavariya.Serdce.Germanii.2011.DVDRip-745_[New-team]_by_AVP_Studio.avi
Формат : AVI
Формат/Информация : Audio Video Interleave
Размер файла : 747 Мбайт
Продолжительность : 1 ч. 59 м.
Общий поток : 870 Кбит/сек
Программа кодирования : VirtualDubModRus 1.5.10.2 (build 2542/release)
Библиотека кодирования : VirtualDubMod build 2542/release

Видео
Идентификатор : 0
Формат : MPEG-4 Visual
Профиль формата : Advanced Simple@L5
Параметр BVOP формата : 1
Параметр QPel формата : Нет
Параметр GMC формата : Без точки перехода
Параметр матрицы формата : Выборочная
Идентификатор кодека : XVID
Идентификатор кодека/Подсказка : XviD
Продолжительность : 1 ч. 59 м.
Битрейт : 733 Кбит/сек
Ширина : 624 пикселя
Высота : 352 пикселя
Соотношение сторон : 16:9
Частота кадров : 25,000 кадров/сек
Цветовое пространство : YUV
Субдискретизация насыщенности : 4:2:0
Битовая глубина : 8 бит
Тип развёртки : Прогрессивная
Метод сжатия : С потерями
Бит/(Пиксели*Кадры) : 0.133
Размер потока : 629 Мбайт (84%)
Библиотека кодирования : XviD 73

Аудио
Идентификатор : 1
Формат : MPEG Audio
Версия формата : Version 1
Профиль формата : Layer 3
Идентификатор кодека : 55
Идентификатор кодека/Подсказка : MP3
Продолжительность : 1 ч. 59 м.
Вид битрейта : Постоянный
Битрейт : 128 Кбит/сек
Каналы : 2 канала
Частота : 48,0 КГц
Метод сжатия : С потерями
Размер потока : 110 Мбайт (15%)
Выравнивание : Соединение по промежуткам
Продолжительность промежутка : 40 мс. (1,00 видеокадр)
Время предзагрузки промежутка : 504 мс.
Библиотека кодирования : LAME3.99r
Настройки программы : -m s -V 4 -q 2 -lowpass 17 -b 128





   Похожие торренты   Торрент   Размер 
В этой теме нет новых непрочитанных сообщений. Путешествие по Европе. Выпуск №40: Бавария (2011) DVDRip-AVC от New-Team

5 | 3

1.45 ГБ

В этой теме нет новых непрочитанных сообщений. Путешествие по Европе. Выпуск №40: Бавария (2011) DVDRip от New-Team

3 | 2

1.46 ГБ

В этой теме нет новых непрочитанных сообщений. Путешествие по Европе. Выпуск №40: Бавария (2011) DVD5 R5 от New-Team

5 | 3

4.12 ГБ

В этой теме нет новых непрочитанных сообщений. Путешествие по Европе. Выпуск №41: Польша (2011) DVDRip от New-Team

6 | 3

1.45 ГБ

В этой теме нет новых непрочитанных сообщений. Путешествие по Европе. Выпуск №30: Франция (2011) DVDRip-AVC от New-Team

4 | 15

1.46 ГБ

В этой теме нет новых непрочитанных сообщений. Путешествие по Европе. Выпуск №30: Франция (2011) DVDRip от New-Team

1 | 2

744.18 МБ

В этой теме нет новых непрочитанных сообщений. Путешествие по Европе. Выпуск №39: Менорка (2011) DVDRip от New-Team

10 | 2

745.6 МБ




Вы не можете начинать темы
Вы не можете отвечать на сообщения
Вы не можете редактировать свои сообщения
Вы не можете удалять свои сообщения
Вы не можете добавлять вложения

Перейти:  
Для Мосгорсуда, Роскомнадзора и рекламодателей: mosgorsud-torrent[собачка]yandex.ru
 Вход
ppkBB3cker v.2 © 2008-2014 @ PPK
[ Time : 0.043s | 17 Queries | GZIP : Off ]

Торрент трекер RUTOR.IN, Не можете зайти на rutor.org? Какой новый адрес рутор? Какое зеркало рутор? Не работает rutor.org и зеркала? Тогда наш торрент специально для вас. Rutor.in неофициальное зеркало rutor. В случае если у Вас заблокирован rutor или вдруг Вы не можете на него зайти, то Вы без труда сможете скачать бесплатно и без рекламы последние новинки кино, игр, сериалов и прочего у нас, на Rutor.in. Не нужно использовать прокси, чтобы зайти на рутор, достаточно воспользоваться нашим ресурсом. Все новые фильмы, игры, сериалы, книги и музыка за 2013 и 2014 годы через торрент бесплатно. Скачивайте фильмы в хорошем качестве, игры для пк, xbox, playstation без регистрации. У нас вы найдете новые Зарубежные сериалы и Русские сериалы 2013, 2014, 2015 годов. Оставайтесь с нами, качайте любимые фильмы, игры, сериалы, книги и музыку.