img image001 image001 image001 image001 image001 image001 image001 image001 image001 image001 image001 image001 image001 image001 image001

Planets Sun Sun Sun
Статистика раздачи
Автор: PriZraK | Размер: 745.6 МБ | Добавлен: 15 фев 2014
Раздают: 10    Качают: 2
Скачать торрент
Скачать торрент
Описание торрента

СообщениеДобавлено: 15 фев 2014 

Менорка. Малый рай Балеарских островов



Год выпуска: 2011
Страна: Германия, Польша, Россия
Студия: Komplett-Media GmbH
Жанр: документальный
Продолжительность: 00:55:15

Перевод: Профессиональный (дикторский закадровый)
Субтитры: нет
Оригинальная аудиодорожка: нет

Описание:
Менорка, второй по величине остров Балеарского архипелага, остается в тени Майорки и Ибицы, оккупированных туристами. Но и она скрывает в себе множество интересного: дикие скалистые бухточки, омываемые изумрудными волнами, тысячелетние мегалиты, живописные рыбацкие деревушки и романтические городки, построенные римлянами, маврами и турками. От загадочной цивилизации, существовавшей на острове много тысяч лет назад, остались сотни не менее загадочных мегалитических построек: лодкообразные гробницы наветы, конусообразные башни талайоты и таулы. На самой высокой вершине Менорки, Эль-Торро, находится знаменитое святилище с фигурой Богоматери с младенцем и лежащим у их ног быком. С монастырского холма видны все красоты острова: городок ремесленников Меркадаль, рыбацкий поселок Форнельс и средневековая деревня Феррериас. А за скалистыми утесами прячутся прекрасные пляжи и бухты: Сон Боу, Кала Гальдана и Кала Маркарелла. Патина веков добавляет очарования по-британски чопорному Маону, нынешней столице острова, и старинной идиллической испано-мавританской Сьютаделье...





Исходник: DVD5 R5
Тип релиза: DVDRip
Контейнер: AVI

Видео: 688x512 (4:3), 25 fps, XviD ~ 1488 kbps avg, 0.169 bit/pixel
Аудио: 48 kHz, Dolby AC3 2.0, 192.00 kbps Русский
Аудио: 48 kHz, Dolby AC3 2.0, 192.00 kbps Украинский

Раздача от:
Общее
Полное имя : Menorka.Malyy.ray.Balearskih.ostrovov.2011.DVDRip_[Youtracker]_by_AVP Studio.avi
Формат : AVI
Формат/Информация : Audio Video Interleave
Размер файла : 746 Мбайт
Продолжительность : 55 м.
Общий поток : 1886 Кбит/сек
Программа кодирования : VirtualDubModRus 1.5.10.2 (build 2542/release)
Библиотека кодирования : VirtualDubMod build 2542/release

Видео
Идентификатор : 0
Формат : MPEG-4 Visual
Профиль формата : Advanced Simple@L5
Параметр BVOP формата : 1
Параметр QPel формата : Нет
Параметр GMC формата : Без точки перехода
Параметр матрицы формата : Выборочная
Идентификатор кодека : XVID
Идентификатор кодека/Подсказка : XviD
Продолжительность : 55 м.
Битрейт : 1488 Кбит/сек
Ширина : 688 пикселей
Высота : 512 пикселей
Соотношение сторон : 4:3
Частота кадров : 25,000 кадров/сек
Цветовое пространство : YUV
Субдискретизация насыщенности : 4:2:0
Битовая глубина : 8 бит
Тип развёртки : Прогрессивная
Метод сжатия : С потерями
Бит/(Пиксели*Кадры) : 0.169
Размер потока : 588 Мбайт (79%)
Библиотека кодирования : XviD 73

Аудио #1
Идентификатор : 1
Формат : AC-3
Формат/Информация : Audio Coding 3
Расширение режима : CM (complete main)
Идентификатор кодека : 2000
Продолжительность : 55 м.
Вид битрейта : Постоянный
Битрейт : 192 Кбит/сек
Каналы : 2 канала
Расположение каналов : Front: L R
Частота : 48,0 КГц
Битовая глубина : 16 бит
Метод сжатия : С потерями
Размер потока : 75,9 Мбайт (10%)
Выравнивание : Разделение по промежуткам
Продолжительность промежутка : 40 мс. (1,00 видеокадр)
Время предзагрузки промежутка : 500 мс.

Аудио #2
Идентификатор : 2
Формат : AC-3
Формат/Информация : Audio Coding 3
Расширение режима : CM (complete main)
Идентификатор кодека : 2000
Продолжительность : 55 м.
Вид битрейта : Постоянный
Битрейт : 192 Кбит/сек
Каналы : 2 канала
Расположение каналов : Front: L R
Частота : 48,0 КГц
Битовая глубина : 16 бит
Метод сжатия : С потерями
Размер потока : 75,9 Мбайт (10%)
Выравнивание : Разделение по промежуткам
Продолжительность промежутка : 40 мс. (1,00 видеокадр)
Время предзагрузки промежутка : 500 мс.





   Похожие торренты   Торрент   Размер 
В этой теме нет новых непрочитанных сообщений. Путешествие по Европе. Выпуск №39: Менорка (2011) DVDRip-AVC от New-Team

2 | 3

744.43 МБ

В этой теме нет новых непрочитанных сообщений. Путешествие по Европе. Выпуск №39: Менорка (2011) DVD5 R5 от New-Team

0 | 3

2.63 ГБ

В этой теме нет новых непрочитанных сообщений. Путешествие по Европе. Выпуск №40: Бавария (2011) DVDRip-AVC от New-Team

5 | 3

1.45 ГБ

В этой теме нет новых непрочитанных сообщений. Путешествие по Европе. Выпуск №18: Ирландия (2011) DVDRip от New-Team

25 | 3

744.12 МБ

В этой теме нет новых непрочитанных сообщений. Путешествие по Европе. Выпуск №41: Польша (2011) DVDRip-AVC от New-Team

1 | 3

1.46 ГБ

В этой теме нет новых непрочитанных сообщений. Путешествие по Европе. Выпуск №41: Польша (2011) DVDRip от New-Team

4 | 3

742.22 МБ

В этой теме нет новых непрочитанных сообщений. Путешествие по Европе. Выпуск №18: Ирландия (2011) DVDRip от New-Team

6 | 2

1.46 ГБ




Вы не можете начинать темы
Вы не можете отвечать на сообщения
Вы не можете редактировать свои сообщения
Вы не можете удалять свои сообщения
Вы не можете добавлять вложения

Перейти:  
Для Мосгорсуда, Роскомнадзора и рекламодателей: mosgorsud-torrent[собачка]yandex.ru
 Вход
ppkBB3cker v.2 © 2008-2014 @ PPK
[ Time : 0.120s | 18 Queries | GZIP : Off ]

cron