img image001 image001 image001 image001 image001 image001 image001 image001 image001 image001 image001 image001 image001 image001 image001

Planets Sun Sun Sun
Статистика раздачи
Автор: PriZraK | Размер: 2.4 ГБ | Добавлен: 16 фев 2014
Раздают: 6    Качают: 2
Скачать торрент
Скачать торрент
Описание торрента

СообщениеДобавлено: 16 фев 2014 

Снежный барс в зелёном Лондоне
Snow Leopards of Leafy London




Год выпуска: 2013
Страна: США
Жанр: Документальный
Продолжительность: 154 минуты (7 серий по ~22 мин.)
Перевод: Профессиональный (одноголосый закадровый) АРК·ТВ
Русские субтитры: нет


Режиссеры: Эдриан Кейл / Adrian Cale

Описание: Фонд сохранения диких кошек находится в паре минут езды от Лондона. Здесь самое большое поголовье снежных барсов - не считая Азии. "Снежный барс в зелёном Лондоне" - документальная программа, в которой мы покажем неизвестные ранее кадры из жизни кошачьих. Программу ведёт автор фильмов о дикой природе Эдриан Кейл. В ней вы увидите, как в пригороде Лондона ведётся работа по спасению целого вида. Доктор Терри Мур - обыкновенный человек, который необыкновенно сильно любит снежных барсов. Между ним и кошками бесспорно существует некая таинственная связь, и методы его работы мало кто отважится назвать классическими.


Автор рипа: Leo.pard
Исходник: HDTV 1080i Спасибо LeXa 84!


Kачество: HDTVRip
Формат: AVI
Видео: XviD, 720x400 (16:9), ~ 1843 Kbps, 25 fps
Аудио: AC3, 384 Kbps, 48 kHz, 6 channels

Сэмпл: http://multi-up.com/923999

General
Complete name : D:Snezhnyj.bars.v.zeljonom.Londone.2013.HDTVRipSnezhnyj.bars.v.zeljonom.Londone.E04.2013.HDTVRip.avi
Format : AVI
Format/Info : Audio Video Interleave
File size : 350 MiB
Duration : 21mn 54s
Overall bit rate : 2 236 Kbps
Writing application : VirtualDubMod 1.5.10.3 | www.virtualdub-fr.org || (build 2550/release)
Writing library : VirtualDubMod build 2550/release

Video
ID : 0
Format : MPEG-4 Visual
Format profile : Advanced Simple@L5
Format settings, BVOP : 1
Format settings, QPel : No
Format settings, GMC : No warppoints
Format settings, Matrix : Custom
Codec ID : XVID
Codec ID/Hint : XviD
Duration : 21mn 54s
Bit rate : 1 842 Kbps
Width : 720 pixels
Height : 400 pixels
Display aspect ratio : 16:9
Frame rate : 25.000 fps
Color space : YUV
Chroma subsampling : 4:2:0
Bit depth : 8 bits
Scan type : Progressive
Compression mode : Lossy
Bits/(Pixel*Frame) : 0.256
Stream size : 289 MiB (82%)
Writing library : XviD 73

Audio
ID : 1
Format : AC-3
Format/Info : Audio Coding 3
Mode extension : CM (complete main)
Codec ID : 2000
Duration : 21mn 54s
Bit rate mode : Constant
Bit rate : 384 Kbps
Channel(s) : 6 channels
Channel positions : Front: L C R, Side: L R, LFE
Sampling rate : 48.0 KHz
Bit depth : 16 bits
Compression mode : Lossy
Stream size : 60.2 MiB (17%)
Alignment : Split accross interleaves
Interleave, duration : 40 ms (1.00 video frame)
Interleave, preload duration : 500 ms






   Похожие торренты   Торрент   Размер 
В этой теме нет новых непрочитанных сообщений. Снежный барс в зелёном Лондоне / Snow Leopards of Leafy London [01-07 из 7] (2013) HDTVRip-AVC от Leo.pard | P1

3 | 2

2.4 ГБ

В этой теме нет новых непрочитанных сообщений. Снежный барс Афганистана / National Geographic: Snow Leopard of Afghanistan (2012) HDTVRip

10 | 2

676.04 МБ

В этой теме нет новых непрочитанных сообщений. BBC: Мир природы - Снежный барс / BBC: Nature World - Snow Leopard [27x01] (2007) BDRip (720p) от ExKinoRay

13 | 4

1.36 ГБ

В этой теме нет новых непрочитанных сообщений. BBC: Снежный барс: Мифы и реальность / Natural World: Snow Leopard - Beyond the Myth (2007) DVDRip (BDRip) от ExKinoRay

13 | 4

699.71 МБ

В этой теме нет новых непрочитанных сообщений. Ирландцы в Лондоне / London Irish [s01] (2013) HDTVRip 720p от Brazzass

115 | 30

3.05 ГБ

В этой теме нет новых непрочитанных сообщений. BBC: Новогодний салют в Лондоне / BBC: London. New Year's Fireworks (2013) HDTVRip-AVC от ExKinoRay

3 | 3

395.73 МБ

В этой теме нет новых непрочитанных сообщений. BBC: Новогодний салют в Лондоне / BBC: London. New Year's Fireworks (2013) HDTVRip 720p - Valegorov

3 | 2

554.01 МБ




Вы не можете начинать темы
Вы не можете отвечать на сообщения
Вы не можете редактировать свои сообщения
Вы не можете удалять свои сообщения
Вы не можете добавлять вложения

Перейти:  
Для Мосгорсуда, Роскомнадзора и рекламодателей: mosgorsud-torrent[собачка]yandex.ru
 Вход
ppkBB3cker v.2 © 2008-2014 @ PPK
[ Time : 0.063s | 15 Queries | GZIP : Off ]

Торрент трекер RUTOR.IN, Не можете зайти на rutor.org? Какой новый адрес рутор? Какое зеркало рутор? Не работает rutor.org и зеркала? Тогда наш торрент специально для вас. Rutor.in неофициальное зеркало rutor. В случае если у Вас заблокирован rutor или вдруг Вы не можете на него зайти, то Вы без труда сможете скачать бесплатно и без рекламы последние новинки кино, игр, сериалов и прочего у нас, на Rutor.in. Не нужно использовать прокси, чтобы зайти на рутор, достаточно воспользоваться нашим ресурсом. Все новые фильмы, игры, сериалы, книги и музыка за 2013 и 2014 годы через торрент бесплатно. Скачивайте фильмы в хорошем качестве, игры для пк, xbox, playstation без регистрации. У нас вы найдете новые Зарубежные сериалы и Русские сериалы 2013, 2014, 2015 годов. Оставайтесь с нами, качайте любимые фильмы, игры, сериалы, книги и музыку.