img image001 image001 image001 image001 image001 image001 image001 image001 image001 image001 image001 image001 image001 image001 image001

Planets Sun Sun Sun
Статистика раздачи
Автор: PriZraK | Размер: 1.56 ГБ | Добавлен: 15 фев 2014
Раздают: 74    Качают: 10
Скачать торрент
Скачать торрент
Описание торрента

СообщениеДобавлено: 15 фев 2014 

Информация о фильме
Название: Хищники океанов 3D
Оригинальное название: Ocean Predators 3D
Год выхода: 2013
Жанр: Документальный
Режиссер: Бенжамин Эйчер

О фильме:
Присоединяйтесь к захватывающему путешествию в глубины океана в поисках самых опасных хищников! Вас ждет немало поразительных открытий об этих завораживающих и умелых охотниках. Долой мифы и легенды - готовы ли вы узнать настоящую правду об акулах, барракудах и муренах. Уникальные документальные кадры, снятые с помощью 3D-стереоскопа, покажут все, что вы хотели знать о настоящих Королях Океана!

Страна: США, Los Banditos Films
Продолжительность: 00:57:25
Перевод: Дублированный
Дата релиза: 21.11.2013

Файл
Кодек: H.264
Качество: BDRip (AVC)
Видео: MPEG-4 AVC, 3000 Кбит/с, 1024x576
Звук: Русский, английский (AC3, 2 ch, 448 Кбит/с)
Общее
Уникальный идентификатор : 211461773607689889815844484288199972777 (0x9F160E625D66957D85075B8E0A8AD7A9)
Полное имя : E:4Hishhniki.okeanov.3D.(2013).BDRip.(AVC).ExKinoRay.mkv
Формат : Matroska
Размер файла : 1,56 Гбайт
Продолжительность : 57 м.
Общий поток : 3894 Кбит/сек
Название фильма : Hishhniki.okeanov.3D.(2013).BDRip.(AVC).ExKinoRay
Дата кодирования : UTC 2013-11-21 20:17:26
Программа кодирования : mkvmerge v4.0.0 ('The Stars were mine') сборка от Jun 6 2010 16:18:42
Библиотека кодирования : libebml v1.0.0 + libmatroska v1.0.0

Видео
Идентификатор : 1
Формат : AVC
Формат/Информация : Advanced Video Codec
Профиль формата : High@L4.1
Параметр CABAC формата : Да
Параметр ReFrames формата : 8 кадров
Идентификатор кодека : V_MPEG4/ISO/AVC
Продолжительность : 57 м.
Битрейт : 3000 Кбит/сек
Ширина : 1024 пикс.
Высота : 576 пикс.
Соотношение сторон : 16:9
Частота кадров : 23,976 кадр/сек
Цветовое пространство : YUV
Подвыборка цветности : 4:2:0
Битовая глубина : 8 бит
Тип развёртки : Прогрессивная
Бит/(Пиксели*Кадры) : 0.212
Размер потока : 1,17 Гбайт (75%)
Заголовок : Rip by Enigma-Vladislav71
Библиотека кодирования : x264 core 129 r2245 bc13772
Настройки программы : cabac=1 / ref=8 / deblock=1:-2:-2 / analyse=0x3:0x133 / me=umh / subme=11 / psy=1 / psy_rd=1.00:0.00 / mixed_ref=1 / me_range=48 / chroma_me=1 / trellis=2 / 8x8dct=1 / cqm=0 / deadzone=21,11 / fast_pskip=0 / chroma_qp_offset=-2 / threads=3 / lookahead_threads=1 / sliced_threads=0 / nr=0 / decimate=0 / interlaced=0 / bluray_compat=0 / constrained_intra=0 / bframes=8 / b_pyramid=2 / b_adapt=2 / b_bias=0 / direct=3 / weightb=1 / open_gop=0 / weightp=2 / keyint=240 / keyint_min=23 / scenecut=40 / intra_refresh=0 / rc=2pass / mbtree=0 / bitrate=3000 / ratetol=1.0 / qcomp=0.60 / qpmin=10 / qpmax=51 / qpstep=4 / cplxblur=20.0 / qblur=0.5 / ip_ratio=1.40 / pb_ratio=1.30 / aq=2:1.00
Язык : English

Аудио #1
Идентификатор : 2
Формат : AC-3
Формат/Информация : Audio Coding 3
Расширение режима : CM (complete main)
Идентификатор кодека : A_AC3
Продолжительность : 57 м.
Вид битрейта : Постоянный
Битрейт : 448 Кбит/сек
Каналы : 2 канала
Расположение каналов : Front: L R
Частота : 48,0 КГц
Битовая глубина : 16 бит
Метод сжатия : С потерями
Размер потока : 184 Мбайт (12%)
Язык : Russian

Аудио #2
Идентификатор : 3
Формат : AC-3
Формат/Информация : Audio Coding 3
Расширение режима : CM (complete main)
Идентификатор кодека : A_AC3
Продолжительность : 57 м.
Вид битрейта : Постоянный
Битрейт : 448 Кбит/сек
Каналы : 2 канала
Расположение каналов : Front: L R
Частота : 48,0 КГц
Битовая глубина : 16 бит
Метод сжатия : С потерями
Размер потока : 184 Мбайт (12%)
Язык : English



Релиз от:

Авторы релиза:



   Похожие торренты   Торрент   Размер 
В этой теме нет новых непрочитанных сообщений. Хищники океанов 3D / Ocean Predators 3D (2013) BDRip от ExKinoRay

24 | 5

701.95 МБ

В этой теме нет новых непрочитанных сообщений. Хищники океанов / Ocean Predators (2013) BDRip от -=HD-NET=-

80 | 10

551.85 МБ

В этой теме нет новых непрочитанных сообщений. Хищники океанов / Ocean Predators (2013) BDRip 720p от denis 100

269 | 28

2.18 ГБ

В этой теме нет новых непрочитанных сообщений. Хищники океанов / Ocean Predators (2013) BDRip 1080p | 3D-Video | halfOU

266 | 31

7.8 ГБ

В этой теме нет новых непрочитанных сообщений. Хищники океанов / Ocean Predators (2013) HDRip от Smart-Tracker | КПК

5 | 3

419.19 МБ

В этой теме нет новых непрочитанных сообщений. National Geographic: Доисторические хищники. Адский кабан / Prehistoric Predators. Killer Pig (2008) HDTVRip от ExKinoRay

61 | 8

697.8 МБ

В этой теме нет новых непрочитанных сообщений. NG. Доисторические хищники. Саблезубый Тигр / Prehistoric Predators. Saber Tooth Cat (2009) HDTVRip 720p от ExKinoRay

32 | 6

1.46 ГБ




Вы не можете начинать темы
Вы не можете отвечать на сообщения
Вы не можете редактировать свои сообщения
Вы не можете удалять свои сообщения
Вы не можете добавлять вложения

Перейти:  
Для Мосгорсуда, Роскомнадзора и рекламодателей: mosgorsud-torrent[собачка]yandex.ru
 Вход
ppkBB3cker v.2 © 2008-2014 @ PPK
[ Time : 0.030s | 16 Queries | GZIP : Off ]

Торрент трекер RUTOR.IN, Не можете зайти на rutor.org? Какой новый адрес рутор? Какое зеркало рутор? Не работает rutor.org и зеркала? Тогда наш торрент специально для вас. Rutor.in неофициальное зеркало rutor. В случае если у Вас заблокирован rutor или вдруг Вы не можете на него зайти, то Вы без труда сможете скачать бесплатно и без рекламы последние новинки кино, игр, сериалов и прочего у нас, на Rutor.in. Не нужно использовать прокси, чтобы зайти на рутор, достаточно воспользоваться нашим ресурсом. Все новые фильмы, игры, сериалы, книги и музыка за 2013 и 2014 годы через торрент бесплатно. Скачивайте фильмы в хорошем качестве, игры для пк, xbox, playstation без регистрации. У нас вы найдете новые Зарубежные сериалы и Русские сериалы 2013, 2014, 2015 годов. Оставайтесь с нами, качайте любимые фильмы, игры, сериалы, книги и музыку.
cron