img image001 image001 image001 image001 image001 image001 image001 image001 image001 image001 image001 image001 image001 image001 image001

Planets Sun Sun Sun
Статистика раздачи
Автор: PriZraK | Размер: 3.42 ГБ | Добавлен: 15 фев 2014
Раздают: 3    Качают: 3
Скачать торрент
Скачать торрент
Описание торрента

СообщениеДобавлено: 15 фев 2014 

Человек и львы - история одного сафари
The Lionman - African Safari
Lion Man - One World African Safari




Год выпуска: 2013
Страна: США
Жанр: Документальный
Продолжительность: 216 минут (10 серий по ~22 мин.)
Перевод: Профессиональный (одноголосый закадровый) АРК·ТВ
Русские субтитры: нет


В ролях: Крейг Буш / Craig Busch

Описание: Крейг Буш вырос на ферме и сам научился всем премудростям общения с большими кошками. Крейг помогает ловить браконьеров и бороться с лесными пожарами. В заповеднике под Йоханнесбургом он создал рай для редких представителей кошачьих: белых бенгальских тигров, барбарийских львов и белых львов. Крейг Буш вместе с группой энтузиастов, посвятивших свою жизнь животным, ищет пропавших гепардов, лечит безнадёжно больных тигров, выслеживает безжалостных убийц-охотников на носорогов. Параллельно, он по всему миру собирает единомышленников (среди них и "человек-волк" Шон Эллис). Крейг взял к себе и выкормил осиротевшего белого львёнка по кличке Джабулла, поставил на ноги несколько барбарийских львят. Он ездит по миру, предлагая котят на обмен, чтобы улучшить генетику редчайших кошек, которых Крейг помог спасти от полного исчезновения.


Автор рипа: Leo.pard
Исходник: HDTV 1080i Спасибо LeXa 84!


Kачество: HDTVRip
Формат: AVI
Видео: XviD, 720x400 (16:9), ~ 1874 Kbps, 25 fps
Аудио: AC3, 384 Kbps, 48 kHz, 6 channels

Сэмпл: http://multi-up.com/926835

General
Complete name : D:Chelovek.i.l'vy-istorija.odnogo.safari.E08.2013.HDTVRip.avi
Format : AVI
Format/Info : Audio Video Interleave
File size : 350 MiB
Duration : 21mn 56s
Overall bit rate : 2 231 Kbps
Writing application : VirtualDubMod 1.5.10.3 | www.virtualdub-fr.org || (build 2550/release)
Writing library : VirtualDubMod build 2550/release

Video
ID : 0
Format : MPEG-4 Visual
Format profile : Advanced Simple@L5
Format settings, BVOP : 1
Format settings, QPel : No
Format settings, GMC : No warppoints
Format settings, Matrix : Custom
Codec ID : XVID
Codec ID/Hint : XviD
Duration : 21mn 56s
Bit rate : 1 837 Kbps
Width : 720 pixels
Height : 400 pixels
Display aspect ratio : 16:9
Frame rate : 25.000 fps
Color space : YUV
Chroma subsampling : 4:2:0
Bit depth : 8 bits
Scan type : Progressive
Compression mode : Lossy
Bits/(Pixel*Frame) : 0.255
Stream size : 288 MiB (82%)
Writing library : XviD 73

Audio
ID : 1
Format : AC-3
Format/Info : Audio Coding 3
Mode extension : CM (complete main)
Codec ID : 2000
Duration : 21mn 56s
Bit rate mode : Constant
Bit rate : 384 Kbps
Channel(s) : 6 channels
Channel positions : Front: L C R, Side: L R, LFE
Sampling rate : 48.0 KHz
Bit depth : 16 bits
Compression mode : Lossy
Stream size : 60.3 MiB (17%)
Alignment : Split accross interleaves
Interleave, duration : 40 ms (1.00 video frame)
Interleave, preload duration : 500 ms






   Похожие торренты   Торрент   Размер 
В этой теме нет новых непрочитанных сообщений. Человек и львы - история одного сафари / The Lionman - African Safari [01-10 из 10] (2013) HDTVRip-AVC от Leo.pard | P1

8 | 9

3.42 ГБ

В этой теме нет новых непрочитанных сообщений. Африканское сафари / African Safari (2013) BDRemux 1080р от ExKinoRay

12 | 44

15.21 ГБ

В этой теме нет новых непрочитанных сообщений. Африканское сафари 2D, 3D / African Safari 2D, 3D (2013) BDRemux 1080р от ExKinoRay

11 | 35

21.92 ГБ

В этой теме нет новых непрочитанных сообщений. Африканское сафари 3D / African Safari 3D (2013) BDRip 1080p от Ash61 | 3D-Video | halfOU | P2

155 | 51

9.95 ГБ

В этой теме нет новых непрочитанных сообщений. Animal Planet. Человек и львы / The Lionman [S02] (2014) HDTVRip от GeneralFilm | D

27 | 20

2.63 ГБ

В этой теме нет новых непрочитанных сообщений. Cabela's African Safari (2006) PC

11 | 4

671.39 МБ

В этой теме нет новых непрочитанных сообщений. Сафари / Safari (2009) DVDRip

2 | 2

745.02 МБ




Вы не можете начинать темы
Вы не можете отвечать на сообщения
Вы не можете редактировать свои сообщения
Вы не можете удалять свои сообщения
Вы не можете добавлять вложения

Перейти:  
Для Мосгорсуда, Роскомнадзора и рекламодателей: mosgorsud-torrent[собачка]yandex.ru
 Вход
ppkBB3cker v.2 © 2008-2014 @ PPK
[ Time : 0.044s | 15 Queries | GZIP : Off ]

Торрент трекер RUTOR.IN, Не можете зайти на rutor.org? Какой новый адрес рутор? Какое зеркало рутор? Не работает rutor.org и зеркала? Тогда наш торрент специально для вас. Rutor.in неофициальное зеркало rutor. В случае если у Вас заблокирован rutor или вдруг Вы не можете на него зайти, то Вы без труда сможете скачать бесплатно и без рекламы последние новинки кино, игр, сериалов и прочего у нас, на Rutor.in. Не нужно использовать прокси, чтобы зайти на рутор, достаточно воспользоваться нашим ресурсом. Все новые фильмы, игры, сериалы, книги и музыка за 2013 и 2014 годы через торрент бесплатно. Скачивайте фильмы в хорошем качестве, игры для пк, xbox, playstation без регистрации. У нас вы найдете новые Зарубежные сериалы и Русские сериалы 2013, 2014, 2015 годов. Оставайтесь с нами, качайте любимые фильмы, игры, сериалы, книги и музыку.