img image001 image001 image001 image001 image001 image001 image001 image001 image001 image001 image001 image001 image001 image001 image001

Planets Sun Sun Sun
Статистика раздачи
Автор: PriZraK | Размер: 1.06 ГБ | Добавлен: 15 фев 2014
Раздают: 5    Качают: 2
Скачать торрент
Скачать торрент
Описание торрента

СообщениеДобавлено: 15 фев 2014 

Информация о фильме
Название: Изучая природу
Оригинальное название: Experience Nature
Год выхода: 2012
Жанр: Документальный, видовой, научно-познавательный, исследования, природа, флора, фауна
Режиссер: Аттила Тенки

О фильме:
Французские Альпы по праву считаются одним из самых живописных уголков Земли. Авторы фильма приглашают совершить увлекательное путешествие в этот потрясающий мир зеленых склонов и величественных вершин. Любоваться разнообразными красотами уникальной местности можно бесконечно: белоснежные пики, окутанные пушистыми облаками, бурлящие реки, кристально чистые озера и изумрудные луга составляют уникальную биосистему, в которой все взаимосвязано. Каждый поворот горной тропинки сулит новые впечатления и неожиданные открытия.

Страна: Германия, KSM
Продолжительность: 01:00:39
Перевод: Дублированный
Дата релиза: 28.11.2013

Файл
Кодек: H.264
Качество: BDRip (AVC)
Видео: MPEG-4 AVC, 1600 Кбит/с, 1024x576
Звук: Русский, английский (AC3, 6 ch, 448 Кбит/с)

Общее
Уникальный идентификатор : 221648917494105490958319865112928202374 (0xA6C0075B2169AC00861B31DE9F982E86)
Полное имя : E:5Izuchaja.prirodu.2012.x264.BDRip.(AVC).ExKinoRay.mkv
Формат : Matroska
Размер файла : 1,06 Гбайт
Продолжительность : 1 ч. 0 м.
Общий поток : 2495 Кбит/сек
Название фильма : Izuchaja.prirodu.2012.x264.BDRip.(AVC).ExKinoRay
Дата кодирования : UTC 2013-11-28 15:37:53
Программа кодирования : mkvmerge v4.0.0 ('The Stars were mine') сборка от Jun 6 2010 16:18:42
Библиотека кодирования : libebml v1.0.0 + libmatroska v1.0.0

Видео
Идентификатор : 1
Формат : AVC
Формат/Информация : Advanced Video Codec
Профиль формата : High@L4.1
Параметр CABAC формата : Да
Параметр ReFrames формата : 8 кадров
Идентификатор кодека : V_MPEG4/ISO/AVC
Продолжительность : 1 ч. 0 м.
Битрейт : 1600 Кбит/сек
Ширина : 1024 пикс.
Высота : 576 пикс.
Соотношение сторон : 16:9
Частота кадров : 23,976 кадр/сек
Цветовое пространство : YUV
Подвыборка цветности : 4:2:0
Битовая глубина : 8 бит
Тип развёртки : Прогрессивная
Бит/(Пиксели*Кадры) : 0.113
Размер потока : 672 Мбайт (62%)
Заголовок : Rip by Enigma-Vladislav71
Библиотека кодирования : x264 core 125 r2208 d9d2288
Настройки программы : cabac=1 / ref=8 / deblock=1:-2:-2 / analyse=0x3:0x133 / me=umh / subme=11 / psy=1 / psy_rd=1.00:0.00 / mixed_ref=1 / me_range=32 / chroma_me=1 / trellis=2 / 8x8dct=1 / cqm=0 / deadzone=21,11 / fast_pskip=0 / chroma_qp_offset=-2 / threads=3 / lookahead_threads=1 / sliced_threads=0 / nr=0 / decimate=0 / interlaced=0 / bluray_compat=0 / constrained_intra=0 / bframes=8 / b_pyramid=2 / b_adapt=2 / b_bias=0 / direct=3 / weightb=1 / open_gop=0 / weightp=2 / keyint=240 / keyint_min=23 / scenecut=40 / intra_refresh=0 / rc=2pass / mbtree=0 / bitrate=1600 / ratetol=1.0 / qcomp=0.60 / qpmin=10 / qpmax=51 / qpstep=4 / cplxblur=20.0 / qblur=0.5 / ip_ratio=1.40 / pb_ratio=1.30 / aq=1:1.00
Язык : English

Аудио #1
Идентификатор : 2
Формат : AC-3
Формат/Информация : Audio Coding 3
Расширение режима : CM (complete main)
Идентификатор кодека : A_AC3
Продолжительность : 1 ч. 0 м.
Вид битрейта : Постоянный
Битрейт : 448 Кбит/сек
Каналы : 6 каналов
Расположение каналов : Front: L C R, Side: L R, LFE
Частота : 48,0 КГц
Битовая глубина : 16 бит
Метод сжатия : С потерями
Размер потока : 194 Мбайт (18%)
Язык : Russian

Аудио #2
Идентификатор : 3
Формат : AC-3
Формат/Информация : Audio Coding 3
Расширение режима : CM (complete main)
Идентификатор кодека : A_AC3
Продолжительность : 1 ч. 0 м.
Вид битрейта : Постоянный
Битрейт : 448 Кбит/сек
Каналы : 6 каналов
Расположение каналов : Front: L C R, Side: L R, LFE
Частота : 48,0 КГц
Битовая глубина : 16 бит
Метод сжатия : С потерями
Размер потока : 194 Мбайт (18%)
Язык : English



Релиз от:

Авторы релиза:



   Похожие торренты   Торрент   Размер 
В этой теме нет новых непрочитанных сообщений. Изучая природу / Experience Nature (2012) BDRip от ExKinoRay

20 | 2

603.26 МБ

В этой теме нет новых непрочитанных сообщений. Изучая природу / Experience Nature (2012) BDRip 720p от NNNB

35 | 4

2.8 ГБ

В этой теме нет новых непрочитанных сообщений. Изучая природу 3D / Erlebnis Natur 3D / Experience Nature 3D (2012) BDRip 1080p | 3D-Video | halfOU

30 | 6

8.67 ГБ

В этой теме нет новых непрочитанных сообщений. IMAX: Антарктика: Путешествие в неизвестную природу / IMAX: Antarctica: An Adventure Of A Different Nature (1991) BDRip 1080p

2 | 3

2.08 ГБ

В этой теме нет новых непрочитанных сообщений. IMAX: Антарктика: Путешествие в неизвестную природу / IMAX: Antarctica: An Adventure Of A Different Nature (1991) BDRip-AVC от Filmoff CLUB

3 | 2

1.07 ГБ

В этой теме нет новых непрочитанных сообщений. Room Experience - Room Experience [Limited Edition] (2015) MP3 от BestSound ExKinoRay

20 | 1

147.68 МБ

В этой теме нет новых непрочитанных сообщений. Амбра / Ambra Experience (2008) BDRip-AVC от ExKinoRay

2 | 1

664.74 МБ




Вы не можете начинать темы
Вы не можете отвечать на сообщения
Вы не можете редактировать свои сообщения
Вы не можете удалять свои сообщения
Вы не можете добавлять вложения

Перейти:  
Для Мосгорсуда, Роскомнадзора и рекламодателей: mosgorsud-torrent[собачка]yandex.ru
 Вход
ppkBB3cker v.2 © 2008-2014 @ PPK
[ Time : 0.044s | 16 Queries | GZIP : Off ]

cron