img image001 image001 image001 image001 image001 image001 image001 image001 image001 image001 image001 image001 image001 image001 image001

Planets Sun Sun Sun
Статистика раздачи
Автор: PriZraK | Размер: 747.38 МБ | Добавлен: 15 фев 2014
Раздают: 0    Качают: 3
Скачать торрент
Скачать торрент
Описание торрента

СообщениеДобавлено: 15 фев 2014 

Страна необыкновенного вкуса



Год выпуска: 2010
Страна: Германия, Польша, Россия
Студия: Komplett-Media GmbH
Жанр: документальный
Продолжительность: 01:05:10

Перевод: Профессиональный (дикторский закадровый)
Субтитры: нет
Оригинальная аудиодорожка: нет

Описание:
У самих французов Нормандия обычно ассоциируется с тремя деликатесами, чьи названия начинаются с буквы «С»: сидром, кальвадосом и сыром камамбер. Но и бурные исторические события не миновали этот живописный край. На его берегах высятся памятники, напоминающие об июня 1944 года — дне одной из самых кровавых битв времен Второй мировой войны, поводом к которой послужила высадка войск Союзников в Нормандии. Вдали от побережья живы и воспоминания о более древних временах. О завоевании Англии легендарным нормандским правителем Вильгельмом Завоевателем нам расскажет знаменитый вытканный вручную Ковер из Байё. Могущество средневековой церкви демонстрируют впечатляющие аббатства. К наиболее необычным местам принадлежат Жюмьеж и Кан, где мы сможем полюбоваться готическими храмами, принадлежащими мужскому и женскому монастырям, а также Мон-Сен-Мишель — расположенное на скале таинственное аббатство, в 1979 году внесенное в список Всемирного наследия ЮНЕСКО. Суровую красоту Нормандии открыли миру в XIX веке поэты и художники. Их вдохновляли романтические сады и острые как бритва скалы побережья с поэтическими названиями: Алебастровое побережье, Жемчужное побережье и Побережье Цветов. Образ этого региона дополняют стильные курорты: Трувиль, Довиль и Кабур, а также метрополии Гавр и Руан.





Исходник: DVD5 R5
Тип релиза: DVDRip
Контейнер: AVI

Видео: 704x400 (16:9), 25 fps, XviD ~ 1205 kbps avg, 0.171 bit/pixel
Аудио: 48 kHz, Dolby AC3 2.0, 192.00 kbps Русский
Аудио: 48 kHz, Dolby AC3 2.0, 192.00 kbps Украинский

Раздача от:
Общее
Полное имя : Normandiya.2010.DVDRip_[New-team]_by_AVP_Studio.avi
Формат : AVI
Формат/Информация : Audio Video Interleave
Размер файла : 747 Мбайт
Продолжительность : 1 ч. 5 м.
Общий поток : 1603 Кбит/сек
Программа кодирования : VirtualDubModRus 1.5.10.2 (build 2542/release)
Библиотека кодирования : VirtualDubMod build 2542/release

Видео
Идентификатор : 0
Формат : MPEG-4 Visual
Профиль формата : Advanced Simple@L5
Параметр BVOP формата : 1
Параметр QPel формата : Нет
Параметр GMC формата : Без точки перехода
Параметр матрицы формата : Выборочная
Идентификатор кодека : XVID
Идентификатор кодека/Подсказка : XviD
Продолжительность : 1 ч. 5 м.
Битрейт : 1205 Кбит/сек
Ширина : 704 пикселя
Высота : 400 пикселей
Соотношение сторон : 16:9
Частота кадров : 25,000 кадров/сек
Цветовое пространство : YUV
Субдискретизация насыщенности : 4:2:0
Битовая глубина : 8 бит
Тип развёртки : Прогрессивная
Метод сжатия : С потерями
Бит/(Пиксели*Кадры) : 0.171
Размер потока : 562 Мбайт (75%)
Библиотека кодирования : XviD 73

Аудио #1
Идентификатор : 1
Формат : AC-3
Формат/Информация : Audio Coding 3
Расширение режима : CM (complete main)
Идентификатор кодека : 2000
Продолжительность : 1 ч. 5 м.
Вид битрейта : Постоянный
Битрейт : 192 Кбит/сек
Каналы : 2 канала
Расположение каналов : Front: L R
Частота : 48,0 КГц
Битовая глубина : 16 бит
Метод сжатия : С потерями
Размер потока : 89,5 Мбайт (12%)
Выравнивание : Разделение по промежуткам
Продолжительность промежутка : 40 мс. (1,00 видеокадр)
Время предзагрузки промежутка : 500 мс.

Аудио #2
Идентификатор : 2
Формат : AC-3
Формат/Информация : Audio Coding 3
Расширение режима : CM (complete main)
Идентификатор кодека : 2000
Продолжительность : 1 ч. 5 м.
Вид битрейта : Постоянный
Битрейт : 192 Кбит/сек
Каналы : 2 канала
Расположение каналов : Front: L R
Частота : 48,0 КГц
Битовая глубина : 16 бит
Метод сжатия : С потерями
Размер потока : 89,5 Мбайт (12%)
Выравнивание : Разделение по промежуткам
Продолжительность промежутка : 40 мс. (1,00 видеокадр)
Время предзагрузки промежутка : 500 мс





   Похожие торренты   Торрент   Размер 
В этой теме нет новых непрочитанных сообщений. Путешествие по Европе. Выпуск №43: Нормандия (2010) DVDRip-AVC от New-Team

8 | 6

743.97 МБ

В этой теме нет новых непрочитанных сообщений. Путешествие по Европе. Выпуск №43: Нормандия (2010) DVD5 R5 от New-Team

9 | 3

3.33 ГБ

В этой теме нет новых непрочитанных сообщений. Путешествие по Европе. Выпуск №46: Швейцария (2010) DVDRip от New-Team

9 | 2

744.46 МБ

В этой теме нет новых непрочитанных сообщений. Путешествие по Европе. Выпуск №45: Корсика (2010) DVDRip-AVC от New-Team

2 | 5

744.31 МБ

В этой теме нет новых непрочитанных сообщений. Путешествие по Европе. Выпуск №45: Корсика (2010) DVDRip от New-Team

1 | 3

745.64 МБ

В этой теме нет новых непрочитанных сообщений. Путешествие по Европе. Выпуск №46: Швейцария (2010) DVDRip от New-Team

6 | 4

1.46 ГБ

В этой теме нет новых непрочитанных сообщений. Путешествие по Европе. Выпуск №44: Норвегия (2010) DVDRip-AVC от New-Team

15 | 2

1.46 ГБ




Вы не можете начинать темы
Вы не можете отвечать на сообщения
Вы не можете редактировать свои сообщения
Вы не можете удалять свои сообщения
Вы не можете добавлять вложения

Перейти:  
Для Мосгорсуда, Роскомнадзора и рекламодателей: mosgorsud-torrent[собачка]yandex.ru
 Вход
ppkBB3cker v.2 © 2008-2014 @ PPK
[ Time : 0.046s | 15 Queries | GZIP : Off ]

Торрент трекер RUTOR.IN, Не можете зайти на rutor.org? Какой новый адрес рутор? Какое зеркало рутор? Не работает rutor.org и зеркала? Тогда наш торрент специально для вас. Rutor.in неофициальное зеркало rutor. В случае если у Вас заблокирован rutor или вдруг Вы не можете на него зайти, то Вы без труда сможете скачать бесплатно и без рекламы последние новинки кино, игр, сериалов и прочего у нас, на Rutor.in. Не нужно использовать прокси, чтобы зайти на рутор, достаточно воспользоваться нашим ресурсом. Все новые фильмы, игры, сериалы, книги и музыка за 2013 и 2014 годы через торрент бесплатно. Скачивайте фильмы в хорошем качестве, игры для пк, xbox, playstation без регистрации. У нас вы найдете новые Зарубежные сериалы и Русские сериалы 2013, 2014, 2015 годов. Оставайтесь с нами, качайте любимые фильмы, игры, сериалы, книги и музыку.