img image001 image001 image001 image001 image001 image001 image001 image001 image001 image001 image001 image001 image001 image001 image001

Planets Sun Sun Sun
Статистика раздачи
Автор: PriZraK | Размер: 743.97 МБ | Добавлен: 16 фев 2014
Раздают: 4    Качают: 5
Скачать торрент
Скачать торрент
Описание торрента

СообщениеДобавлено: 16 фев 2014 

Страна необыкновенного вкуса



Год выпуска: 2010
Страна: Германия, Польша, Россия
Студия: Komplett-Media GmbH
Жанр: документальный
Продолжительность: 01:05:10

Перевод: Профессиональный (дикторский закадровый)
Субтитры: нет
Оригинальная аудиодорожка: нет

Описание:
У самих французов Нормандия обычно ассоциируется с тремя деликатесами, чьи названия начинаются с буквы «С»: сидром, кальвадосом и сыром камамбер. Но и бурные исторические события не миновали этот живописный край. На его берегах высятся памятники, напоминающие об июня 1944 года — дне одной из самых кровавых битв времен Второй мировой войны, поводом к которой послужила высадка войск Союзников в Нормандии. Вдали от побережья живы и воспоминания о более древних временах. О завоевании Англии легендарным нормандским правителем Вильгельмом Завоевателем нам расскажет знаменитый вытканный вручную Ковер из Байё. Могущество средневековой церкви демонстрируют впечатляющие аббатства. К наиболее необычным местам принадлежат Жюмьеж и Кан, где мы сможем полюбоваться готическими храмами, принадлежащими мужскому и женскому монастырям, а также Мон-Сен-Мишель — расположенное на скале таинственное аббатство, в 1979 году внесенное в список Всемирного наследия ЮНЕСКО. Суровую красоту Нормандии открыли миру в XIX веке поэты и художники. Их вдохновляли романтические сады и острые как бритва скалы побережья с поэтическими названиями: Алебастровое побережье, Жемчужное побережье и Побережье Цветов. Образ этого региона дополняют стильные курорты: Трувиль, Довиль и Кабур, а также метрополии Гавр и Руан.





Исходник: DVD5 R5
Тип релиза: DVDRip-AVC
Контейнер: MKV

Видео: 712->764x430 (16:9), 25 fps, H264 ~ 1210 kbps avg, 0.158 bit/pixel
Аудио: 48 kHz, Dolby AC3 2.0, 192.00 kbps Русский
Аудио: 48 kHz, Dolby AC3 2.0, 192.00 kbps Украинский

Раздача от:
Общее
Полное имя : Normandiya.2010.DVDRip-AVC_[New-team]_by_AVP_Studio.mkv
Формат : Matroska
Версия формата : Version 4 / Version 2
Размер файла : 744 Мбайт
Продолжительность : 1 ч. 5 м.
Общий поток : 1596 Кбит/сек
Название фильма : Normandiya.2010.DVDRip-AVC_[New-team]_by_AVP_Studio
Дата кодирования : UTC 2013-11-28 20:31:51
Программа кодирования : mkvmerge v6.5.0 ('Isn't she lovely') built on Oct 20 2013 12:50:05
Библиотека кодирования : libebml v1.3.0 + libmatroska v1.4.1

Видео
Идентификатор : 1
Формат : AVC
Формат/Информация : Advanced Video Codec
Профиль формата : High@L4.1
Параметр CABAC формата : Да
Параметр ReFrames формата : 6 кадров
Идентификатор кодека : V_MPEG4/ISO/AVC
Продолжительность : 1 ч. 5 м.
Битрейт : 1210 Кбит/сек
Ширина : 712 пикселей
Высота : 430 пикселей
Соотношение сторон : 16:9
Соотношение сторон в оригинале : 16:9
Частота кадров : 25,000 кадров/сек
Цветовое пространство : YUV
Субдискретизация насыщенности : 4:2:0
Битовая глубина : 8 бит
Тип развёртки : Прогрессивная
Бит/(Пиксели*Кадры) : 0.158
Размер потока : 550 Мбайт (74%)
Заголовок : Источник DVD
Библиотека кодирования : x264 core 138 r2356 a1d3d17
Настройки программы : cabac=1 / ref=6 / deblock=1:-2:-1 / analyse=0x3:0x113 / me=umh / subme=10 / psy=1 / psy_rd=1.00:0.05 / mixed_ref=1 / me_range=32 / chroma_me=1 / trellis=2 / 8x8dct=1 / cqm=0 / deadzone=21,11 / fast_pskip=0 / chroma_qp_offset=-3 / threads=3 / lookahead_threads=1 / sliced_threads=0 / nr=0 / decimate=0 / interlaced=0 / bluray_compat=0 / constrained_intra=0 / bframes=8 / b_pyramid=2 / b_adapt=2 / b_bias=0 / direct=3 / weightb=1 / open_gop=0 / weightp=2 / keyint=250 / keyint_min=25 / scenecut=40 / intra_refresh=0 / rc=2pass / mbtree=0 / bitrate=1210 / ratetol=1.0 / qcomp=0.60 / qpmin=0 / qpmax=69 / qpstep=4 / cplxblur=20.0 / qblur=0.5 / ip_ratio=1.40 / pb_ratio=1.30 / aq=1:1.00
Язык : German
Default : Да
Forced : Нет

Аудио #1
Идентификатор : 2
Формат : AC-3
Формат/Информация : Audio Coding 3
Расширение режима : CM (complete main)
Идентификатор кодека : A_AC3
Продолжительность : 1 ч. 5 м.
Вид битрейта : Постоянный
Битрейт : 192 Кбит/сек
Каналы : 2 канала
Расположение каналов : Front: L R
Частота : 48,0 КГц
Битовая глубина : 16 бит
Метод сжатия : С потерями
Размер потока : 89,5 Мбайт (12%)
Заголовок : Источник DVD Dolby Digital 2,0 192 kbps
Язык : Russian
Default : Да
Forced : Нет

Аудио #2
Идентификатор : 3
Формат : AC-3
Формат/Информация : Audio Coding 3
Расширение режима : CM (complete main)
Идентификатор кодека : A_AC3
Продолжительность : 1 ч. 5 м.
Вид битрейта : Постоянный
Битрейт : 192 Кбит/сек
Каналы : 2 канала
Расположение каналов : Front: L R
Частота : 48,0 КГц
Битовая глубина : 16 бит
Метод сжатия : С потерями
Размер потока : 89,5 Мбайт (12%)
Заголовок : Источник DVD Dolby Digital 2,0 192 kbps
Язык : Ukrainian
Default : Нет
Forced : Нет





   Похожие торренты   Торрент   Размер 
В этой теме нет новых непрочитанных сообщений. Путешествие по Европе. Выпуск №43: Нормандия (2010) DVDRip от New-Team

0 | 3

747.38 МБ

В этой теме нет новых непрочитанных сообщений. Путешествие по Европе. Выпуск №43: Нормандия (2010) DVD5 R5 от New-Team

9 | 3

3.33 ГБ

В этой теме нет новых непрочитанных сообщений. Путешествие по Европе. Выпуск №48: Сардиния (2010) DVDRip от New-Team

8 | 4

745.08 МБ

В этой теме нет новых непрочитанных сообщений. Путешествие по Европе. Выпуск №46: Швейцария (2010) DVDRip от New-Team

6 | 4

1.46 ГБ

В этой теме нет новых непрочитанных сообщений. Путешествие по Европе. Выпуск №46: Швейцария (2010) DVDRip от New-Team

9 | 2

744.46 МБ

В этой теме нет новых непрочитанных сообщений. Путешествие по Европе. Выпуск №24: Крит (2010) DVDRip-AVC от New-Team

7 | 1

1.46 ГБ

В этой теме нет новых непрочитанных сообщений. Путешествие по Европе. Выпуск №24: Крит (2010) DVDRip от New-Team

4 | 1

745.11 МБ




Вы не можете начинать темы
Вы не можете отвечать на сообщения
Вы не можете редактировать свои сообщения
Вы не можете удалять свои сообщения
Вы не можете добавлять вложения

Перейти:  
Для Мосгорсуда, Роскомнадзора и рекламодателей: mosgorsud-torrent[собачка]yandex.ru
 Вход
ppkBB3cker v.2 © 2008-2014 @ PPK
[ Time : 0.033s | 17 Queries | GZIP : Off ]

Торрент трекер RUTOR.IN, Не можете зайти на rutor.org? Какой новый адрес рутор? Какое зеркало рутор? Не работает rutor.org и зеркала? Тогда наш торрент специально для вас. Rutor.in неофициальное зеркало rutor. В случае если у Вас заблокирован rutor или вдруг Вы не можете на него зайти, то Вы без труда сможете скачать бесплатно и без рекламы последние новинки кино, игр, сериалов и прочего у нас, на Rutor.in. Не нужно использовать прокси, чтобы зайти на рутор, достаточно воспользоваться нашим ресурсом. Все новые фильмы, игры, сериалы, книги и музыка за 2013 и 2014 годы через торрент бесплатно. Скачивайте фильмы в хорошем качестве, игры для пк, xbox, playstation без регистрации. У нас вы найдете новые Зарубежные сериалы и Русские сериалы 2013, 2014, 2015 годов. Оставайтесь с нами, качайте любимые фильмы, игры, сериалы, книги и музыку.