img image001 image001 image001 image001 image001 image001 image001 image001 image001 image001 image001 image001 image001 image001 image001

Planets Sun Sun Sun
Статистика раздачи
Автор: PriZraK | Размер: 3.42 ГБ | Добавлен: 16 фев 2014
Раздают: 8    Качают: 9
Скачать торрент
Скачать торрент
Описание торрента

СообщениеДобавлено: 16 фев 2014 

Человек и львы - история одного сафари
The Lionman - African Safari
Lion Man - One World African Safari




Год выпуска: 2013
Страна: США
Жанр: Документальный
Продолжительность: 216 минут (10 серий по ~22 мин.)
Перевод: Профессиональный (одноголосый закадровый) АРК·ТВ
Русские субтитры: нет


В ролях: Крейг Буш / Craig Busch

Описание: Крейг Буш вырос на ферме и сам научился всем премудростям общения с большими кошками. Крейг помогает ловить браконьеров и бороться с лесными пожарами. В заповеднике под Йоханнесбургом он создал рай для редких представителей кошачьих: белых бенгальских тигров, барбарийских львов и белых львов. Крейг Буш вместе с группой энтузиастов, посвятивших свою жизнь животным, ищет пропавших гепардов, лечит безнадёжно больных тигров, выслеживает безжалостных убийц-охотников на носорогов. Параллельно, он по всему миру собирает единомышленников (среди них и "человек-волк" Шон Эллис). Крейг взял к себе и выкормил осиротевшего белого львёнка по кличке Джабулла, поставил на ноги несколько барбарийских львят. Он ездит по миру, предлагая котят на обмен, чтобы улучшить генетику редчайших кошек, которых Крейг помог спасти от полного исчезновения.


Автор рипа: Leo.pard
Исходник: HDTV 1080i Спасибо LeXa 84!


Kачество: HDTVRip-AVC
Формат: MKV
Видео: x264, 912x512 (16:9), ~ 1882 Kbps, 25 fps
Аудио: AC3, 384 Kbps, 48 kHz, 6 channels

Сэмпл: http://multi-up.com/927948

General
Unique ID : 210616337670560646876584537736246121691 (0x9E733B2CA049AC7CBD4305CF90B2D4DB)
Complete name : D:Chelovek.i.l'vy-istorija.odnogo.safari.E04.2013.HDTVRip-AVC.mkv
Format : Matroska
Format version : Version 2
File size : 350 MiB
Duration : 21mn 50s
Overall bit rate : 2 242 Kbps
Encoded date : UTC 2013-11-26 17:52:28
Writing application : mkvmerge v6.1.0 ('Old Devil') built on Mar 4 2013 09:10:42
Writing library : libebml v1.3.0 + libmatroska v1.4.0

Video
ID : 1
Format : AVC
Format/Info : Advanced Video Codec
Format profile : High@L4.1
Format settings, CABAC : Yes
Format settings, ReFrames : 11 frames
Codec ID : V_MPEG4/ISO/AVC
Duration : 21mn 50s
Bit rate : 1 856 Kbps
Width : 912 pixels
Height : 512 pixels
Display aspect ratio : 16:9
Frame rate : 25.000 fps
Color space : YUV
Chroma subsampling : 4:2:0
Bit depth : 8 bits
Scan type : Progressive
Bits/(Pixel*Frame) : 0.159
Stream size : 283 MiB (81%)
Writing library : x264 core 130 r2273 b3065e6
Encoding settings : cabac=1 / ref=11 / deblock=1:-2:-1 / analyse=0x3:0x113 / me=umh / subme=9 / psy=1 / psy_rd=1.00:0.20 / mixed_ref=1 / me_range=32 / chroma_me=1 / trellis=1 / 8x8dct=1 / cqm=0 / deadzone=21,11 / fast_pskip=0 / chroma_qp_offset=-3 / threads=3 / lookahead_threads=1 / sliced_threads=0 / nr=0 / decimate=0 / interlaced=0 / bluray_compat=0 / constrained_intra=0 / bframes=8 / b_pyramid=2 / b_adapt=2 / b_bias=0 / direct=3 / weightb=1 / open_gop=0 / weightp=2 / keyint=250 / keyint_min=25 / scenecut=40 / intra_refresh=0 / rc_lookahead=60 / rc=2pass / mbtree=1 / bitrate=1856 / ratetol=1.0 / qcomp=0.60 / qpmin=0 / qpmax=69 / qpstep=4 / cplxblur=20.0 / qblur=0.5 / ip_ratio=1.40 / aq=1:1.00

Audio
ID : 2
Format : AC-3
Format/Info : Audio Coding 3
Mode extension : CM (complete main)
Codec ID : A_AC3
Duration : 21mn 50s
Bit rate mode : Constant
Bit rate : 384 Kbps
Channel(s) : 6 channels
Channel positions : Front: L C R, Side: L R, LFE
Sampling rate : 48.0 KHz
Bit depth : 16 bits
Compression mode : Lossy
Stream size : 60.0 MiB (17%)






   Похожие торренты   Торрент   Размер 
В этой теме нет новых непрочитанных сообщений. Человек и львы - история одного сафари / The Lionman - African Safari [01-10 из 10] (2013) HDTVRip от Leo.pard | P1

3 | 3

3.42 ГБ

В этой теме нет новых непрочитанных сообщений. Африканское сафари 2D, 3D / African Safari 2D, 3D (2013) BDRemux 1080р от ExKinoRay

11 | 35

21.92 ГБ

В этой теме нет новых непрочитанных сообщений. Африканское сафари / African Safari (2013) BDRemux 1080р от ExKinoRay

12 | 44

15.21 ГБ

В этой теме нет новых непрочитанных сообщений. Африканское сафари 3D / African Safari 3D (2013) BDRip 1080p от Ash61 | 3D-Video | halfOU | P2

155 | 51

9.95 ГБ

В этой теме нет новых непрочитанных сообщений. Animal Planet. Человек и львы / The Lionman [S02] (2014) HDTVRip от GeneralFilm | D

25 | 13

2.63 ГБ

В этой теме нет новых непрочитанных сообщений. Cabela's African Safari (2006) PC

11 | 4

671.39 МБ

В этой теме нет новых непрочитанных сообщений. Сафари / Safari (2009) DVDRip

2 | 2

745.02 МБ




Вы не можете начинать темы
Вы не можете отвечать на сообщения
Вы не можете редактировать свои сообщения
Вы не можете удалять свои сообщения
Вы не можете добавлять вложения

Перейти:  
Для Мосгорсуда, Роскомнадзора и рекламодателей: mosgorsud-torrent[собачка]yandex.ru
 Вход
ppkBB3cker v.2 © 2008-2014 @ PPK
[ Time : 0.119s | 15 Queries | GZIP : Off ]

Торрент трекер RUTOR.IN, Не можете зайти на rutor.org? Какой новый адрес рутор? Какое зеркало рутор? Не работает rutor.org и зеркала? Тогда наш торрент специально для вас. Rutor.in неофициальное зеркало rutor. В случае если у Вас заблокирован rutor или вдруг Вы не можете на него зайти, то Вы без труда сможете скачать бесплатно и без рекламы последние новинки кино, игр, сериалов и прочего у нас, на Rutor.in. Не нужно использовать прокси, чтобы зайти на рутор, достаточно воспользоваться нашим ресурсом. Все новые фильмы, игры, сериалы, книги и музыка за 2013 и 2014 годы через торрент бесплатно. Скачивайте фильмы в хорошем качестве, игры для пк, xbox, playstation без регистрации. У нас вы найдете новые Зарубежные сериалы и Русские сериалы 2013, 2014, 2015 годов. Оставайтесь с нами, качайте любимые фильмы, игры, сериалы, книги и музыку.