img image001 image001 image001 image001 image001 image001 image001 image001 image001 image001 image001 image001 image001 image001 image001

Planets Sun Sun Sun
Статистика раздачи
Автор: PriZraK | Размер: 711.74 МБ | Добавлен: 15 фев 2014
Раздают: 141    Качают: 13
Скачать торрент
Скачать торрент
Описание торрента

СообщениеДобавлено: 15 фев 2014 

Год выпуска: 2013
Страна: США
Жанр: Псевдодокументальный
Продолжительность: 00:43:55
Перевод: Профессиональный (одноголосый закадровый)
Русские субтитры: нет

Режиссер: Кристина Баветта / Christina Bavetta

Описание: Псевдодокументальный фильм, в котором группа ученых рассказывает о том, как в ходе своей работы по исследованию воздействия сонаров на млекопитающих океана с целью запретить сонары, они столкнулись с рядом необъяснимых фактов, говорящих о том, что в глубинах океана существует неизвестный науке вид живых существ, походящий на человека. В какой-то момент времени в брюхе белой акулы ученым даже удалось найти фрагменты тела этого существа. Были исследованы его внутренности и скелет. Восозданный специалистами облик очень напоминал одно мифологическое существо, которое так или иначе упоминается в мифологиях всех древних народов мира. В русской мифологии это русалка. Интересно, что транснациональные спецслужбы с самого начала следили за деятельностью этой группы ученых, и в нужный момент изъяли как фрагменты самого тела, так и все документы и видеоматериалы. Некие надправительственные силы сделали все, чтобы данное существо осталось вычеркнутым из естествознания современного общества.

Качество: HDTVRip
Формат:AVI
Видео кодек: XviD
Аудио кодек: AC-3
Видео: 16:9, 2000 Кбит/сек, 720x400, 25,000 кадров/сек
Аудио: AC-3, 6 каналов, 256 Кбит/сек, 48,0 КГц

Общее
Полное имя : D:Русалки Новые доказательства.[R.G.RealMT].avi
Формат : AVI
Формат/Информация : Audio Video Interleave
Размер файла : 712 Мбайт
Продолжительность : 43 м.
Общий поток : 2266 Кбит/сек
Программа кодирования : VirtualDubMod 1.5.10.3 | www.virtualdub-fr.org || (build 2550/release)
Библиотека кодирования : VirtualDubMod build 2550/release

Видео
Идентификатор : 0
Формат : MPEG-4 Visual
Профиль формата : Advanced Simple@L5
Параметр BVOP формата : 2
Параметр QPel формата : Нет
Параметр GMC формата : Без точки перехода
Параметр матрицы формата : Default (H.263)
Режим смешивания : Сжатый битовый поток
Идентификатор кодека : XVID
Идентификатор кодека/Подсказка : XviD
Продолжительность : 43 м.
Битрейт : 2000 Кбит/сек
Ширина : 720 пикселей
Высота : 400 пикселей
Соотношение сторон : 16:9
Частота кадров : 25,000 кадров/сек
Цветовое пространство : YUV
Субдискретизация насыщенности : 4:2:0
Битовая глубина : 8 бит
Тип развёртки : Прогрессивная
Метод сжатия : С потерями
Бит/(Пиксели*Кадры) : 0.278
Размер потока : 628 Мбайт (88%)
Библиотека кодирования : XviD 1.2.1 (UTC 2008-12-04)

Аудио
Идентификатор : 1
Формат : AC-3
Формат/Информация : Audio Coding 3
Расширение режима : CM (complete main)
Параметр Endianness формата : Big
Идентификатор кодека : 2000
Продолжительность : 43 м.
Вид битрейта : Постоянный
Битрейт : 256 Кбит/сек
Каналы : 6 каналов
Расположение каналов : Front: L C R, Side: L R, LFE
Частота : 48,0 КГц
Битовая глубина : 16 бит
Метод сжатия : С потерями
Размер потока : 80,4 Мбайт (11%)
Выравнивание : Разделение по промежуткам
Продолжительность промежутка : 40 мс. (1,00 видеокадр)
Время предзагрузки промежутка : 500 мс.



Релиз от:



   Похожие торренты   Торрент   Размер 
В этой теме нет новых непрочитанных сообщений. Animal Planet: Русалки: Обнаружено тело / Mermaids: The body found (2011) HDTVRip от Rulya74

252 | 11

1.38 ГБ

В этой теме нет новых непрочитанных сообщений. Русалки / Mermaids (1990) HDTVRip-AVC от olegek70

15 | 6

2.18 ГБ

В этой теме нет новых непрочитанных сообщений. Русалки Мако / Mako Mermaids [01x01-11 из 26] (2013) 720p | Sub

5 | 2

3.35 ГБ

В этой теме нет новых непрочитанных сообщений. Animal Planet: Планета мутантов. Япония / Animal Planet: Mutant Planet. Japan (2010) HDTVRip от tenow

34 | 5

695.85 МБ

В этой теме нет новых непрочитанных сообщений. Русалки / Mermaids (1990) DVDRip от SergV

2 | 9

1.47 ГБ

В этой теме нет новых непрочитанных сообщений. Русалки / Mermaids (1990) DVDRip от ExKinoRay

3 | 4

2.06 ГБ

В этой теме нет новых непрочитанных сообщений. Animal Planet: Львы и Великаны / Animal Planet: Lions and Giants on the Edge (2008) HDTVRip-AVC от Тorrent-Хzona

1 | 3

595.81 МБ




Вы не можете начинать темы
Вы не можете отвечать на сообщения
Вы не можете редактировать свои сообщения
Вы не можете удалять свои сообщения
Вы не можете добавлять вложения

Перейти:  
Для Мосгорсуда, Роскомнадзора и рекламодателей: mosgorsud-torrent[собачка]yandex.ru
 Вход
ppkBB3cker v.2 © 2008-2014 @ PPK
[ Time : 0.633s | 16 Queries | GZIP : Off ]

Торрент трекер RUTOR.IN, Не можете зайти на rutor.org? Какой новый адрес рутор? Какое зеркало рутор? Не работает rutor.org и зеркала? Тогда наш торрент специально для вас. Rutor.in неофициальное зеркало rutor. В случае если у Вас заблокирован rutor или вдруг Вы не можете на него зайти, то Вы без труда сможете скачать бесплатно и без рекламы последние новинки кино, игр, сериалов и прочего у нас, на Rutor.in. Не нужно использовать прокси, чтобы зайти на рутор, достаточно воспользоваться нашим ресурсом. Все новые фильмы, игры, сериалы, книги и музыка за 2013 и 2014 годы через торрент бесплатно. Скачивайте фильмы в хорошем качестве, игры для пк, xbox, playstation без регистрации. У нас вы найдете новые Зарубежные сериалы и Русские сериалы 2013, 2014, 2015 годов. Оставайтесь с нами, качайте любимые фильмы, игры, сериалы, книги и музыку.
cron