img image001 image001 image001 image001 image001 image001 image001 image001 image001 image001 image001 image001 image001 image001 image001

Planets Sun Sun Sun
Статистика раздачи
Автор: PriZraK | Размер: 2.45 ГБ | Добавлен: 15 фев 2014
Раздают: 119    Качают: 6
Скачать торрент
Скачать торрент
Описание торрента

СообщениеДобавлено: 15 фев 2014 

Секретные самолеты супердержав (4 серии из 4) / Secret Superpower Aircrafts



Год выпуска: 2004
Страна: США, A&E Media Services, History Channel
Жанр: Документальный, авиация, история
Продолжительность: 4 х ~ 00:45:07
Перевод: Одноголосый закадровый
Описание: Сериал «Секретные самолеты супердержав» рассказывает о развитии авиации в драматическом противостоянии СССР и стран НАТО в период «Холодной войны». Это истории о летательных аппаратах военного назначения, о технологиях, по которым их создали, и о необыкновенных людях, которые их создавали, и на них летали. Материал подан без тенденциозности, большое количество компьютерной графики и интервью с авторитетными специалистами и историками авиации, много хроникальных кадров.

Доп. информация: IPTVRip by alf62 & awas99



качество: IPTVRip
формат: AVI
Видео: 704x528 (1.33:1), 25 fps, DivX, ~ 1803 kbps avg, 0.19 bit/pixel
Аудио: 48 kHz, MPEG Layer 3, 2 ch, ~128.00 kbps avg
1. Бомбардировщики / Bombers До появления МБР, сверхдержавы тайно работали над проектированием и созданием флота поразительных бомбардировщиков, чтобы принести смерть и разрушения своим врагам. Результат - летающие линкоры и самолеты с атомными двигателями. Это рассказ о том, как Конгресс едва не пустил на слом американские авианосцы, и как флот США делал отчаянную попытку запустить самолеты с атомным оружием с палубы авианосца. Как СССР обманул США, заставив их поверить, что уже массово производит огромные бомбардировщики, намного опередившие свое время. И как пошел на слом самый низколетающий из когда-либо построенных сверхзвуковой бомбардировщик, потому что политики испугались, что он слишком хорош. Это тайная история этих бомбардировщиков и необыкновенных людей, которые их создавали, и на них летали…
2. Истребители / Fighters Более 50 лет истребитель был героем небес. Две мировые супердержавы бросали кости и раздвигали границы авиатехнологий, создавая самолеты-паразиты, летающие тарелки и сверхзвуковые самолеты, чья скорость переопределила историю авиации. Каждая ставила на то, что ее выбор правильный. И сейчас мы в кабине этого самолета отправимся к центру эпической битвы между Востоком и Западом, ставкой в которой была власть над миром.
3. Самолеты-разведчики / Spy planes Их имена стали легендарными. «Блэкберд» («Черный дрозд») SR-71 и U-2...Оба созданы для шпионажа над одной из мировых сверхдержав. Но эти летательные аппараты были лишь видимой частью айсберга. Это всего два представителя мощного секретного флота самолетов сверхдержав, поражающих воображение. Они умели летать медленно и низко, чтобы забрать спецагентов с земли, мчаться в стратосфере в три раза быстрее скорости звука, и бросали вызов радарам своей почти невидимостью. Мы впервые пустим вас внутрь этих самолетов-шпионов, расскажем о технологиях, по которым их создали, и о людях, которые на них летали.
4. На пути к вертикальному взлету / The quest for vertical take-off Взлетные полосы были ахиллесовой пятой во времена холодной войны. В 1950-60-е годы напряженность между сверхдержавами была высокой. Противники, опасаясь потерять аэродромы в первые же минуты нападения, пришли к логичному выводу. Если взлетные полосы - проблема, то ее решение - отказаться от них. И на волне гонки за вертикальный взлет в небо поднялись удивительные самолеты, каких мир еще не видел...

Секретные самолеты супердержавSekretnye.samolety.superderzhav.(4.serii.iz.4).2004.DivX.IPTVRip.alf62.&.awas99Sekretnye.samolety.superderzhav.(1.serija.iz.4).Bombardirovwiki.2004.DivX.IPTVRip.alf62.&.awas99.avi
Format : AVI
Format/Info : Audio Video Interleave
File size : 627 MiB
Duration : 45mn 14s
Overall bit rate : 1 938 Kbps
Writing application : VirtualDubMod 1.5.10.3 | www.virtualdub-fr.org || (build 2550/release)
Writing library : VirtualDubMod build 2550/release

Video
ID : 0
Format : MPEG-4 Visual
Format profile : Advanced Simple@L5
Format settings, BVOP : 2
Format settings, QPel : No
Format settings, GMC : No warppoints
Format settings, Matrix : Default (MPEG)
Codec ID : DX50
Codec ID/Hint : DivX 5
Duration : 45mn 14s
Bit rate : 1 800 Kbps
Width : 704 pixels
Height : 528 pixels
Display aspect ratio : 4:3
Frame rate : 25.000 fps
Color space : YUV
Chroma subsampling : 4:2:0
Bit depth : 8 bits
Scan type : Progressive
Compression mode : Lossy
Bits/(Pixel*Frame) : 0.194
Stream size : 582 MiB (93%)
Writing library : XviD 73

Audio
ID : 1
Format : MPEG Audio
Format version : Version 1
Format profile : Layer 3
Codec ID : 55
Codec ID/Hint : MP3
Duration : 45mn 14s
Bit rate mode : Constant
Bit rate : 128 Kbps
Channel(s) : 2 channels
Sampling rate : 48.0 KHz
Compression mode : Lossy
Stream size : 41.4 MiB (7%)
Alignment : Aligned on interleaves
Interleave, duration : 40 ms (1.00 video frame)
Interleave, preload duration : 504 ms
Writing library : LAME3.99r
Encoding settings : -m s -V 4 -q 2 -lowpass 17 -b 128














   Похожие торренты   Торрент   Размер 
В этой теме нет новых непрочитанных сообщений. Секретные войны / BBC: The secret war (1977) TVRip

41 | 3

2.75 ГБ

В этой теме нет новых непрочитанных сообщений. Легендарные самолеты [s02] (2015) IPTVRip от torrentfilm

545 | 135

2.89 ГБ

В этой теме нет новых непрочитанных сообщений. Легендарные самолеты [s02] (2015) IPTVRip от torrentfilm

227 | 20

3.38 ГБ

В этой теме нет новых непрочитанных сообщений. Секретные материалы псов шпионов / The Secret Files of the Spy Dogs (S01-02) (1998) TVRip

6 | 7

2.3 ГБ

В этой теме нет новых непрочитанных сообщений. Война цивилизаций / SuperPower (2002) PC

130 | 10

125.85 МБ

В этой теме нет новых непрочитанных сообщений. N.G. Самые удивительные фотографии: Секретные голоса / Nat Geo's Most Amazing Photos. Secret Voices (2009) HDTVRip от ClubTorrent | D

5 | 1

336.12 МБ

В этой теме нет новых непрочитанных сообщений. Секретные архивы инквизиции: шокирующая правда истории. / Secret Files of the Inqu [01-04 из 4] (2006) DVDRip-AVC от Тorrent-Хzona

12 | 1

2.49 ГБ




Вы не можете начинать темы
Вы не можете отвечать на сообщения
Вы не можете редактировать свои сообщения
Вы не можете удалять свои сообщения
Вы не можете добавлять вложения

Перейти:  
Для Мосгорсуда, Роскомнадзора и рекламодателей: mosgorsud-torrent[собачка]yandex.ru
 Вход
ppkBB3cker v.2 © 2008-2014 @ PPK
[ Time : 0.034s | 15 Queries | GZIP : Off ]

Торрент трекер RUTOR.IN, Не можете зайти на rutor.org? Какой новый адрес рутор? Какое зеркало рутор? Не работает rutor.org и зеркала? Тогда наш торрент специально для вас. Rutor.in неофициальное зеркало rutor. В случае если у Вас заблокирован rutor или вдруг Вы не можете на него зайти, то Вы без труда сможете скачать бесплатно и без рекламы последние новинки кино, игр, сериалов и прочего у нас, на Rutor.in. Не нужно использовать прокси, чтобы зайти на рутор, достаточно воспользоваться нашим ресурсом. Все новые фильмы, игры, сериалы, книги и музыка за 2013 и 2014 годы через торрент бесплатно. Скачивайте фильмы в хорошем качестве, игры для пк, xbox, playstation без регистрации. У нас вы найдете новые Зарубежные сериалы и Русские сериалы 2013, 2014, 2015 годов. Оставайтесь с нами, качайте любимые фильмы, игры, сериалы, книги и музыку.