img image001 image001 image001 image001 image001 image001 image001 image001 image001 image001 image001 image001 image001 image001 image001

Planets Sun Sun Sun
Статистика раздачи
Автор: PriZraK | Размер: 7.77 ГБ | Добавлен: 15 фев 2014
Раздают: 7    Качают: 3
Скачать торрент
Скачать торрент
Описание торрента

СообщениеДобавлено: 15 фев 2014 

Информация о фильме
Название: Бавария - Путешествие мечты
Оригинальное название: Bavaria - Traumreise durch Bayern
Год выпуска: 2012
Жанр: Документальный, путешествие, туризм
Выпущено: Германия, Clasart Film- und Fernsehproduktion, Perathon Film-und Fernsehproduktions GmbH
Режиссер: Йозеф Вильсмайер

Перевод: Профессиональный одноголосый (текст читает - Алексеев Михаил)


Сюжет фильма

Это первая большая кино-документация про немецкое свободное государство Бавария.



Файл
Качество: BDRip 1080p (исходник Blu-ray)
Видео: 1920x816, ~10800 Кбит/сек, 23,976 кадр/сек, AVC, x264, High@L4.1, 0.289 Бит/[Пиксели*Кадры], 2pass
Аудио 1: AC-3, 640 Кбит/сек, 6 канала(ов), 48,0 КГц -Профессиональный одноголосый (текст читает - Алексеев Михаил)
Аудио 2: AC-3, 640 Кбит/сек, 6 канала(ов), 48,0 КГц - English
Чаптеры: есть
Субтитры: Русские, Английские
Продолжительность: 01:31:35



Автор Рипа:









Format : Matroska
Format version : Version 2
File size : 7.77 GiB
Duration : 1h 33mn
Overall bit rate : 11.9 Mbps
Movie name : Бавария - Путешествие мечты.(2012).BDRip.1080p.[denis100]
Encoded date : UTC 2013-12-09 13:10:11
Writing application : mkvmerge v5.8.0 ('No Sleep / Pillow') built on Sep 2 2012 15:37:04
Writing library : libebml v1.2.3 + libmatroska v1.3.0

Video
ID : 1
Format : AVC
Format/Info : Advanced Video Codec
Format profile : High@L4.1
Format settings, CABAC : Yes
Format settings, ReFrames : 5 frames
Codec ID : V_MPEG4/ISO/AVC
Duration : 1h 33mn
Bit rate : 10.8 Mbps
Width : 1 920 pixels
Height : 816 pixels
Display aspect ratio : 2.35:1
Frame rate mode : Constant
Frame rate : 23.976 fps
Color space : YUV
Chroma subsampling : 4:2:0
Bit depth : 8 bits
Scan type : Progressive
Bits/(Pixel*Frame) : 0.289
Stream size : 6.78 GiB (87%)
Title : Бавария - Путешествие мечты.(2012).BDRip.1080p.[denis100]
Writing library : x264 core 140 r2377 1ca7bb9
Encoding settings : cabac=1 / ref=5 / deblock=1:-3:-3 / analyse=0x3:0x133 / me=umh / subme=10 / psy=1 / psy_rd=1.00:0.10 / mixed_ref=1 / me_range=32 / chroma_me=1 / trellis=2 / 8x8dct=1 / cqm=0 / deadzone=21,11 / fast_pskip=0 / chroma_qp_offset=-3 / threads=6 / lookahead_threads=1 / sliced_threads=0 / nr=0 / decimate=0 / interlaced=0 / bluray_compat=0 / constrained_intra=0 / bframes=6 / b_pyramid=2 / b_adapt=2 / b_bias=0 / direct=3 / weightb=1 / open_gop=0 / weightp=2 / keyint=240 / keyint_min=23 / scenecut=40 / intra_refresh=0 / rc=2pass / mbtree=0 / bitrate=10848 / ratetol=1.0 / qcomp=0.60 / qpmin=0 / qpmax=69 / qpstep=4 / cplxblur=20.0 / qblur=0.5 / ip_ratio=1.40 / pb_ratio=1.30 / aq=1:0.90
Language : English
Default : Yes
Forced : No

Audio #1
ID : 2
Format : AC-3
Format/Info : Audio Coding 3
Mode extension : CM (complete main)
Format settings, Endianness : Big
Codec ID : A_AC3
Duration : 1h 33mn
Bit rate mode : Constant
Bit rate : 640 Kbps
Channel count : 6 channels
Channel positions : Front: L C R, Side: L R, LFE
Sampling rate : 48.0 KHz
Bit depth : 16 bits
Compression mode : Lossy
Stream size : 427 MiB (5%)
Title : Документальный дубляж (Алексеев Михаил)
Language : Russian
Default : Yes
Forced : No

Audio #2
ID : 3
Format : AC-3
Format/Info : Audio Coding 3
Mode extension : CM (complete main)
Format settings, Endianness : Big
Codec ID : A_AC3
Duration : 1h 33mn
Bit rate mode : Constant
Bit rate : 640 Kbps
Channel count : 6 channels
Channel positions : Front: L C R, Side: L R, LFE
Sampling rate : 48.0 KHz
Bit depth : 16 bits
Compression mode : Lossy
Stream size : 427 MiB (5%)
Title : английский
Language : English
Default : No
Forced : No

Text #1
ID : 4
Format : UTF-8
Codec ID : S_TEXT/UTF8
Codec ID/Info : UTF-8 Plain Text
Title : русский
Language : Russian
Default : No
Forced : No

Text #2
ID : 5
Format : UTF-8
Codec ID : S_TEXT/UTF8
Codec ID/Info : UTF-8 Plain Text
Title : английский
Language : English
Default : No
Forced : No

Menu
00:00:00.000 : :Chapter 01
00:08:04.650 : :Chapter 02
00:15:31.722 : :Chapter 03
00:22:11.413 : :Chapter 04
00:25:02.542 : :Chapter 05
00:29:45.909 : :Chapter 06
00:34:32.737 : :Chapter 07
00:47:15.040 : :Chapter 08
00:49:25.837 : :Chapter 09
00:53:16.526 : :Chapter 10
00:56:36.559 : :Chapter 11
01:03:03.529 : :Chapter 12
01:10:49.828 : :Chapter 13
01:18:21.279 : :Chapter 14
01:23:20.036 : :Chapter 15
01:28:00.525 : :Chapter 16
01:31:35.448 : :Chapter 17




   Похожие торренты   Торрент   Размер 
В этой теме нет новых непрочитанных сообщений. Бавария - Путешествие мечты / Bavaria - Traumreise durch Bayern (2012) BDRip от denis 100 | P1

25 | 2

1.36 ГБ

В этой теме нет новых непрочитанных сообщений. Бавария - Путешествие мечты / Bavaria - Traumreise durch Bayern (2012) BDRip 720p от denis 100 | P1

5 | 2

4.39 ГБ

В этой теме нет новых непрочитанных сообщений. Бавария - Путешествие мечты / Bavaria - Traumreise durch Bayern (2012) BDRip 1080p | Sub

8 | 1

7.7 ГБ

В этой теме нет новых непрочитанных сообщений. Бавария - Путешествие мечты / Bavaria - Traumreise durch Bayern (2012) BDRip 720p | D

86 | 23

4.71 ГБ

В этой теме нет новых непрочитанных сообщений. Бавария - Путешествие мечты / Bavaria - Traumreise durch Bayern (2012) BDRip 720p от ExKinoRay | D

10 | 0

6.6 ГБ

В этой теме нет новых непрочитанных сообщений. Золотой Глобус: Бавария / Golden Globe: Bayern (2010) BDRip 1080p

20 | 1

10.56 ГБ

В этой теме нет новых непрочитанных сообщений. Золотой Глобус: Бавария / Golden Globe: Bayern (2010) BDRip AVC

20 | 2

2.76 ГБ




Вы не можете начинать темы
Вы не можете отвечать на сообщения
Вы не можете редактировать свои сообщения
Вы не можете удалять свои сообщения
Вы не можете добавлять вложения

Перейти:  
Для Мосгорсуда, Роскомнадзора и рекламодателей: mosgorsud-torrent[собачка]yandex.ru
 Вход
ppkBB3cker v.2 © 2008-2014 @ PPK
[ Time : 0.046s | 16 Queries | GZIP : Off ]

cron