img image001 image001 image001 image001 image001 image001 image001 image001 image001 image001 image001 image001 image001 image001 image001

Planets Sun Sun Sun
Статистика раздачи
Автор: PriZraK | Размер: 9.88 ГБ | Добавлен: 15 фев 2014
Раздают: 173    Качают: 25
Скачать торрент
Скачать торрент
Описание торрента

СообщениеДобавлено: 15 фев 2014 

Новая Зеландия 3D: Забытый рай
New Zealand 3D: The Forgotten Paradise



Год выпуска: 2013
Страна: Германия (Power Pictures)
Жанр: Документальный
Продолжительность: 01:03:22

Перевод: Профессиональный дублированный

Режиссер: Аттила Тенки / Attila Tenki

Описание: Новая Зеландия - уникальная страна: маленькие острова на юго-западе Океании повторяют весь мир в миниатюре. Туристы, уставшие от популярных курортов, отправляются в Новую Зеландию за незабываемыми впечатлениями. Здесь можно насладиться роскошными пляжами и подышать горным воздухом, почувствовать ритм больших городов и уют деревень, далеких от цивилизации. Вместе с документальным фильмом "Новая Зеландия 3D. Забытый рай" вы совершите увлекательное путешествие по этой стране не выходя из дома.



Релиз на Blu-Ray (Россия): 27 ноября 2013




Качество: BDRip (by Ash61)
Контейнер: MKV
Формат 3D: Half OverUnder / Вертикальная анаморфная стереопара
Порядок ракурсов: левый ракурс первый
Видео кодек: x264
Аудио кодек: AC3



Видео: AVC / 23,976 fps / 1920х1080p / 20.6 Mbps

Аудио:
#1 - Русский / AC3 / 48 KHz / 5.1 ch / 640 Kbps (Дубляж - BD 3D Rus)
#2 - Английский / AC3 / 48 KHz / 5.1 ch / 640 Kbps

Субтитры: Отсутствуют

General
Unique ID : 223698836229777267225867756746271725594 (0xA84AD4271F2A946DB7FD225545BD981A)
Complete name : E:NewZealand.TheForgottenParadise(2013)3D-halfOU(Ash61).mkv
Format : Matroska
Format version : Version 2
File size : 9.88 GiB
Duration : 1h 3mn
Overall bit rate : 22.3 Mbps
Movie name : Новая Зеландия 3D: Забытый рай / New Zealand 3D: The Forgotten Paradise (2013) 3D
Encoded date : UTC 2013-12-13 14:37:31
Writing application : mkvmerge v5.8.0 ('No Sleep / Pillow') built on Sep 2 2012 15:37:04
Writing library : libebml v1.2.3 + libmatroska v1.3.0

Video
ID : 1
Format : AVC
Format/Info : Advanced Video Codec
Format profile : High@L4.1
Format settings, CABAC : Yes
Format settings, ReFrames : 4 frames
Codec ID : V_MPEG4/ISO/AVC
Duration : 1h 3mn
Bit rate : 20.6 Mbps
Width : 1 920 pixels
Height : 1 080 pixels
Display aspect ratio : 16:9
Frame rate mode : Constant
Frame rate : 23.976 fps
Color space : YUV
Chroma subsampling : 4:2:0
Bit depth : 8 bits
Scan type : Progressive
Bits/(Pixel*Frame) : 0.414
Stream size : 9.12 GiB (92%)
Title : BDRip by Ash61
Writing library : x264 core 129 r2245 bc13772
Encoding settings : cabac=1 / ref=4 / deblock=1:-3:-3 / analyse=0x3:0x113 / me=umh / subme=10 / psy=1 / psy_rd=1.00:0.15 / mixed_ref=1 / me_range=32 / chroma_me=1 / trellis=2 / 8x8dct=1 / cqm=0 / deadzone=21,11 / fast_pskip=1 / chroma_qp_offset=-3 / threads=12 / lookahead_threads=2 / sliced_threads=0 / nr=0 / decimate=1 / interlaced=0 / bluray_compat=0 / constrained_intra=0 / bframes=10 / b_pyramid=2 / b_adapt=2 / b_bias=0 / direct=3 / weightb=1 / open_gop=0 / weightp=2 / keyint=250 / keyint_min=23 / scenecut=40 / intra_refresh=0 / rc_lookahead=60 / rc=crf / mbtree=1 / crf=17.0 / qcomp=0.70 / qpmin=0 / qpmax=69 / qpstep=4 / vbv_maxrate=40000 / vbv_bufsize=30000 / crf_max=0.0 / nal_hrd=none / frame-packing=4 / ip_ratio=1.40 / aq=1:0.70
Language : German
Default : Yes
Forced : No

Audio #1
ID : 2
Format : AC-3
Format/Info : Audio Coding 3
Mode extension : CM (complete main)
Format settings, Endianness : Big
Codec ID : A_AC3
Duration : 1h 3mn
Bit rate mode : Constant
Bit rate : 640 Kbps
Channel(s) : 6 channels
Channel positions : Front: L C R, Side: L R, LFE
Sampling rate : 48.0 KHz
Bit depth : 16 bits
Compression mode : Lossy
Stream size : 290 MiB (3%)
Title : Дубляж - BD 3D Rus
Language : Russian
Default : Yes
Forced : No

Audio #2
ID : 3
Format : AC-3
Format/Info : Audio Coding 3
Mode extension : CM (complete main)
Format settings, Endianness : Big
Codec ID : A_AC3
Duration : 1h 3mn
Bit rate mode : Constant
Bit rate : 640 Kbps
Channel(s) : 6 channels
Channel positions : Front: L C R, Side: L R, LFE
Sampling rate : 48.0 KHz
Bit depth : 16 bits
Compression mode : Lossy
Stream size : 290 MiB (3%)
Language : English
Default : No
Forced : No

Menu
00:00:00.000 : :1
00:08:05.735 : :2
00:15:56.247 : :3
00:24:04.276 : :4
00:32:03.839 : :5
00:40:04.360 : :6
00:48:05.966 : :7
00:56:08.782 : :8


















   Похожие торренты   Торрент   Размер 
В этой теме нет новых непрочитанных сообщений. Новая Зеландия 3D: Забытый рай / New Zealand 3D: The Forgotten Paradise (2013) BDRip-AVC от -=HD-NET=-

79 | 2

877.94 МБ

В этой теме нет новых непрочитанных сообщений. Новая Зеландия: Забытый рай / New Zealand: The Forgotten Paradise (2013) BDRemux 1080p от ExKinoRay | D

31 | 8

12.17 ГБ

В этой теме нет новых непрочитанных сообщений. Новая Зеландия : Забытый рай / New Zealand: The Forgotten Paradise (2013) BDRip от HitWAy | D

17 | 5

701.3 МБ

В этой теме нет новых непрочитанных сообщений. Новая Зеландия: Забытый рай / New Zealand: The Forgotten Paradise (2013) BDRip 720p от denis 100

75 | 3

2.15 ГБ

В этой теме нет новых непрочитанных сообщений. Best of 3D (Vol. 1-9) (2013) BDRip 1080p от Ash61 | 3D-Video | halfOU

146 | 133

35.86 ГБ

В этой теме нет новых непрочитанных сообщений. Мистер Гоу / Mi-seu-teo Go / Mr. Go (2013) BDRip 1080p от Ash61 | 3D-Video | halfOU | L1

107 | 67

17.45 ГБ

В этой теме нет новых непрочитанных сообщений. Беги / Run (2013) BDRip 1080p от Ash61 | 3D-Video | halfOU

306 | 180

10.08 ГБ




Вы не можете начинать темы
Вы не можете отвечать на сообщения
Вы не можете редактировать свои сообщения
Вы не можете удалять свои сообщения
Вы не можете добавлять вложения

Перейти:  
Для Мосгорсуда, Роскомнадзора и рекламодателей: mosgorsud-torrent[собачка]yandex.ru
 Вход
ppkBB3cker v.2 © 2008-2014 @ PPK
[ Time : 0.033s | 15 Queries | GZIP : Off ]

cron