img image001 image001 image001 image001 image001 image001 image001 image001 image001 image001 image001 image001 image001 image001 image001

Planets Sun Sun Sun
Статистика раздачи
Автор: PriZraK | Размер: 2.7 ГБ | Добавлен: 16 фев 2014
Раздают: 41    Качают: 2
Скачать торрент
Скачать торрент
Описание торрента

СообщениеДобавлено: 16 фев 2014 

Информация о фильме
Название: Электро Mосква
Год выхода: 2013
Жанр: документальный, музыка
Режиссер: Елена Тихонова, Доминик Шпритцендорфер
В ролях: Лев Термен, Андрей Смирнов, Станислав Крейчи, Алексей Ильиных, Владимир Кузьмин

О фильме:
Электро Москва – это эссеистская электро-сказка о России, повествующая о советской эпохе и ее последствиях. Историю открывает изобретатель, физик и музыкант Лев Термен, создатель первого в мире электронного музыкального инструмента терменвокс (1919) – одной из первых телевизионных систем, а также бесчисленного количества невероятных приборов, изобретенных им во время работы в секретных научных лабораториях КГБ. Основная линия фильма - история советской электронной музыки и аналоговых синтезаторов, созданных на военных заводах из бракованных деталей. На этих синтезаторах, собранных из отходов военной машины, невозможно было играть в традиционном смысле этого слова из-за их полной неуправляемости и непредсказуемости. Но именно это качество придавало им неповторимый шарм и толкало авангардных музыкантов на поиски нового звучания. Сопровождая героев фильма, погружаясь в повседневную жизнь музыкантов, изобретателей и художников, Россия предстаёт перед нами в очень личном и субъективном аспекте восприятия. История электронной музыки и советских синтезаторов – это аллегорическая картина жизни многих талантливых людей в России, творящих не благодаря, а вопреки политической системе своей страны. Это электро-сказка о свободном творческом духе, скрытом от мира за тяжелым железным занавесом.
Общее
Уникальный идентификатор : 186930267442747366788522647327987393435 (0x8CA175BFCF390D90A70974AF6B0EE39B)
Полное имя : Elektro.Moskva.2013.720p.WEB-DL.Rus.HDCLUB.mkv
Формат : Matroska
Версия формата : Version 2
Размер файла : 2,70 Гбайт
Продолжительность : 1 ч. 26 м.
Общий поток : 4485 Кбит/сек
Название фильма : Elektro Moskva (2013) - Release for HDCLUB
Дата кодирования : UTC 2013-12-15 10:12:06
Программа кодирования : mkvmerge v3.4.0 ('Rapunzel') built on May 15 2010 09:38:20
Библиотека кодирования : libebml v0.8.0 + libmatroska v0.9.0

Видео
Идентификатор : 1
Формат : AVC
Формат/Информация : Advanced Video Codec
Профиль формата : Main@L3.1
Параметр CABAC формата : Нет
Параметр ReFrames формата : 2 кадра
Идентификатор кодека : V_MPEG4/ISO/AVC
Продолжительность : 1 ч. 26 м.
Битрейт : 4012 Кбит/сек
Ширина : 960 пикселей
Высота : 718 пикселей
Соотношение сторон : 16:9
Режим частоты кадров : Постоянный
Частота кадров : 25,000 кадров/сек
Цветовое пространство : YUV
Субдискретизация насыщенности : 4:2:0
Битовая глубина : 8 бит
Тип развёртки : Прогрессивная
Бит/(Пиксели*Кадры) : 0.233
Размер потока : 2,42 Гбайт (89%)
Заголовок : Elektro Moskva (2013) - Release for HDCLUB
Язык : Russian
Default : Да
Forced : Нет
Основные цвета : BT.709
Характеристики трансфера : BT.709
Коэффициенты матрицы : BT.709

Аудио
Идентификатор : 2
Формат : AC-3
Формат/Информация : Audio Coding 3
Расширение режима : CM (complete main)
Параметр Endianness формата : Big
Идентификатор кодека : A_AC3
Продолжительность : 1 ч. 26 м.
Вид битрейта : Постоянный
Битрейт : 384 Кбит/сек
Каналы : 6 каналов
Расположение каналов : Front: L C R, Side: L R, LFE
Частота : 48,0 КГц
Битовая глубина : 16 бит
Метод сжатия : С потерями
Размер потока : 237 Мбайт (9%)
Заголовок : AC3 5.1 @ 384 kbps
Язык : Russian
Default : Да
Forced : Нет

Текст
Идентификатор : 3
Формат : UTF-8
Идентификатор кодека : S_TEXT/UTF8
Идентификатор кодека/Информация : UTF-8 Plain Text
Язык : English
Default : Нет
Forced : Нет

Меню
00:00:00.000 : ru:Глава 1
00:10:57.000 : ru:Глава 2
00:21:05.000 : ru:Глава 3
00:32:01.000 : ru:Глава 4
00:39:21.000 : ru:Глава 5
00:51:59.000 : ru:Глава 6
01:00:23.000 : ru:Глава 7
01:13:21.000 : ru:Глава 8


Страна: Россия
Продолжительность: 01:26:13
Перевод: Русский

Файл
Кодек: MPEG-4 AVC
Качество: WEB-DL 720p
Видео: 1280@960x718 at 25.000 fps, ~4000 kbps avg
Звук: Russian: 48 kHz, AC3, 3/2 (L,C,R,l,r) + LFE ch, ~384.00 kbps avg |iTunes Russia|
Субтитры: английские




Релиз от: by Dreamcatcher

Сохранены оригинальные чаптеры.
Исходный WEB-DL куплен в рамках сервиса "Копилка".



   Похожие торренты   Торрент   Размер 
В этой теме нет новых непрочитанных сообщений. Электро Mосква (2013) WEB-DLRip от DeathN2

149 | 8

1.37 ГБ

В этой теме нет новых непрочитанных сообщений. Атом - Электро Активизация (2012) MP3

19 | 3

83.05 МБ

В этой теме нет новых непрочитанных сообщений. Моя ужасная история: Электро-Человек / My shocking story: Electric Human (2008) SATRip

0 | 2

489.33 МБ

В этой теме нет новых непрочитанных сообщений. Майор (2013) BDRip 720p от HDClub

9 | 6

4.66 ГБ

В этой теме нет новых непрочитанных сообщений. Вера / Vera [S03] (2013) WEB-DL 720p от HDClub | ТВЦ

24 | 7

10.99 ГБ

В этой теме нет новых непрочитанных сообщений. Амазония / Amazonia (2013) WEB-DL 720p от HDClub | D

259 | 12

2.53 ГБ

В этой теме нет новых непрочитанных сообщений. Враг / Enemy (2013) BDRip 720p от HDCLUB

301 | 114

7.34 ГБ




Вы не можете начинать темы
Вы не можете отвечать на сообщения
Вы не можете редактировать свои сообщения
Вы не можете удалять свои сообщения
Вы не можете добавлять вложения

Перейти:  
Для Мосгорсуда, Роскомнадзора и рекламодателей: mosgorsud-torrent[собачка]yandex.ru
 Вход
ppkBB3cker v.2 © 2008-2014 @ PPK
[ Time : 0.037s | 16 Queries | GZIP : Off ]

Торрент трекер RUTOR.IN, Не можете зайти на rutor.org? Какой новый адрес рутор? Какое зеркало рутор? Не работает rutor.org и зеркала? Тогда наш торрент специально для вас. Rutor.in неофициальное зеркало rutor. В случае если у Вас заблокирован rutor или вдруг Вы не можете на него зайти, то Вы без труда сможете скачать бесплатно и без рекламы последние новинки кино, игр, сериалов и прочего у нас, на Rutor.in. Не нужно использовать прокси, чтобы зайти на рутор, достаточно воспользоваться нашим ресурсом. Все новые фильмы, игры, сериалы, книги и музыка за 2013 и 2014 годы через торрент бесплатно. Скачивайте фильмы в хорошем качестве, игры для пк, xbox, playstation без регистрации. У нас вы найдете новые Зарубежные сериалы и Русские сериалы 2013, 2014, 2015 годов. Оставайтесь с нами, качайте любимые фильмы, игры, сериалы, книги и музыку.
cron