img image001 image001 image001 image001 image001 image001 image001 image001 image001 image001 image001 image001 image001 image001 image001

Planets Sun Sun Sun
Статистика раздачи
Автор: PriZraK | Размер: 1.37 ГБ | Добавлен: 15 фев 2014
Раздают: 149    Качают: 8
Скачать торрент
Скачать торрент
Описание торрента

СообщениеДобавлено: 15 фев 2014 

Информация о фильме
Название: Электро Mосква
Год выхода: 2013
Жанр: документальный, музыка
Режиссер: Елена Тихонова, Доминик Шпритцендорфер
В ролях: Лев Термен, Андрей Смирнов, Станислав Крейчи, Алексей Ильиных, Владимир Кузьмин

О фильме:
Электро Москва – это эссеистская электро-сказка о России, повествующая о советской эпохе и ее последствиях. Историю открывает изобретатель, физик и музыкант Лев Термен, создатель первого в мире электронного музыкального инструмента терменвокс (1919) – одной из первых телевизионных систем, а также бесчисленного количества невероятных приборов, изобретенных им во время работы в секретных научных лабораториях КГБ. Основная линия фильма - история советской электронной музыки и аналоговых синтезаторов, созданных на военных заводах из бракованных деталей. На этих синтезаторах, собранных из отходов военной машины, невозможно было играть в традиционном смысле этого слова из-за их полной неуправляемости и непредсказуемости. Но именно это качество придавало им неповторимый шарм и толкало авангардных музыкантов на поиски нового звучания. Сопровождая героев фильма, погружаясь в повседневную жизнь музыкантов, изобретателей и художников, Россия предстаёт перед нами в очень личном и субъективном аспекте восприятия. История электронной музыки и советских синтезаторов – это аллегорическая картина жизни многих талантливых людей в России, творящих не благодаря, а вопреки политической системе своей страны. Это электро-сказка о свободном творческом духе, скрытом от мира за тяжелым железным занавесом.

Общее
Полное имя : Elektro.Moskva.2013.WEB-DL.Rip.DeathN2Elektro.Moskva.2013.WEB-DL.Rip.avi
Формат : AVI
Формат/Информация : Audio Video Interleave
Размер файла : 1,37 Гбайт
Продолжительность : 1 ч. 26 м.
Общий поток : 2274 Кбит/сек
Название фильма : Created by DeathN2 for Кинозал.ТВ
Программа кодирования : VirtualDubMod 1.5.10.2 (build 2540/release)
Библиотека кодирования : VirtualDubMod build 2540/release

Видео
Идентификатор : 0
Формат : MPEG-4 Visual
Профиль формата : Advanced Simple@L5
Параметр BVOP формата : 1
Параметр QPel формата : Нет
Параметр GMC формата : Без точки перехода
Параметр матрицы формата : Default (MPEG)
Идентификатор кодека : XVID
Идентификатор кодека/Подсказка : XviD
Продолжительность : 1 ч. 26 м.
Битрейт : 1881 Кбит/сек
Ширина : 720 пикселей
Высота : 400 пикселей
Соотношение сторон : 16:9
Частота кадров : 25,000 кадров/сек
Цветовое пространство : YUV
Субдискретизация насыщенности : 4:2:0
Битовая глубина : 8 бит
Тип развёртки : Прогрессивная
Метод сжатия : С потерями
Бит/(Пиксели*Кадры) : 0.261
Размер потока : 1,13 Гбайт (83%)
Библиотека кодирования : XviD 1.2.1 (UTC 2008-12-04)

Аудио
Идентификатор : 1
Формат : AC-3
Формат/Информация : Audio Coding 3
Расширение режима : CM (complete main)
Параметр Endianness формата : Big
Идентификатор кодека : 2000
Продолжительность : 1 ч. 26 м.
Вид битрейта : Постоянный
Битрейт : 384 Кбит/сек
Каналы : 6 каналов
Расположение каналов : Front: L C R, Side: L R, LFE
Частота : 48,0 КГц
Битовая глубина : 16 бит
Метод сжатия : С потерями
Размер потока : 237 Мбайт (17%)
Выравнивание : Разделение по промежуткам
Продолжительность промежутка : 40 мс. (1,00 видеокадр)
Время предзагрузки промежутка : 500 мс.

Общее
Полное имя : Elektro.Moskva.2013.WEB-DL.Rip.DeathN2Elektro.Moskva.2013.WEB-DL.Rip.eng.srt
Формат : SubRip
Размер файла : 52,4 Кбайт

Текст
Формат : SubRip
Метод сжатия : Без потерь


Страна: Россия
Продолжительность: 01:26:13
Перевод: Русский

Файл
Кодек: XviD
Качество: WEB-DLRip
Видео: 704x400, 25 fps, 1881 kbps, 0.261 bit/pixel
Звук: Russian: 48 kHz, AC3, 3/2 (L,C,R,l,r) + LFE ch, ~384.00 kbps avg |iTunes Russia|
Субтитры: английские





Релиз от:
Исходный WEB-DL куплен в рамках сервиса "Копилка" HDClub. за что им огромное спасибо.



   Похожие торренты   Торрент   Размер 
В этой теме нет новых непрочитанных сообщений. Электро Mосква (2013) WEB-DL 720p от HDClub

41 | 2

2.7 ГБ

В этой теме нет новых непрочитанных сообщений. Африка / BBC: Africa [01-06 из 06] (2013) HDRip от DeathN2

8 | 2

7.04 ГБ

В этой теме нет новых непрочитанных сообщений. Африка / BBC: Africa [01-05 из 06] (2013) HDRip от DeathN2

15 | 6

5.86 ГБ

В этой теме нет новых непрочитанных сообщений. Африка / BBC: Africa [01-05 из 06] (2013) BDRip 720p от DeathN2

37 | 12

13.76 ГБ

В этой теме нет новых непрочитанных сообщений. Африка / BBC: Africa [01-06 из 06] (2013) BDRip 720p от DeathN2

2 | 3

16.52 ГБ

В этой теме нет новых непрочитанных сообщений. Африка / BBC: Africa [01-05 из 06] (2013) BDRip 1080p от DeathN2

6 | 2

45.54 ГБ

В этой теме нет новых непрочитанных сообщений. Африка / BBC: Africa [01-06 из 06] (2013) BDRip 1080p от DeathN2

6 | 6

55.11 ГБ




Вы не можете начинать темы
Вы не можете отвечать на сообщения
Вы не можете редактировать свои сообщения
Вы не можете удалять свои сообщения
Вы не можете добавлять вложения

Перейти:  
Для Мосгорсуда, Роскомнадзора и рекламодателей: mosgorsud-torrent[собачка]yandex.ru
 Вход
ppkBB3cker v.2 © 2008-2014 @ PPK
[ Time : 0.042s | 15 Queries | GZIP : Off ]

Торрент трекер RUTOR.IN, Не можете зайти на rutor.org? Какой новый адрес рутор? Какое зеркало рутор? Не работает rutor.org и зеркала? Тогда наш торрент специально для вас. Rutor.in неофициальное зеркало rutor. В случае если у Вас заблокирован rutor или вдруг Вы не можете на него зайти, то Вы без труда сможете скачать бесплатно и без рекламы последние новинки кино, игр, сериалов и прочего у нас, на Rutor.in. Не нужно использовать прокси, чтобы зайти на рутор, достаточно воспользоваться нашим ресурсом. Все новые фильмы, игры, сериалы, книги и музыка за 2013 и 2014 годы через торрент бесплатно. Скачивайте фильмы в хорошем качестве, игры для пк, xbox, playstation без регистрации. У нас вы найдете новые Зарубежные сериалы и Русские сериалы 2013, 2014, 2015 годов. Оставайтесь с нами, качайте любимые фильмы, игры, сериалы, книги и музыку.