img image001 image001 image001 image001 image001 image001 image001 image001 image001 image001 image001 image001 image001 image001 image001

Planets Sun Sun Sun
Статистика раздачи
Автор: PriZraK | Размер: 744.46 МБ | Добавлен: 15 фев 2014
Раздают: 9    Качают: 2
Скачать торрент
Скачать торрент
Описание торрента

СообщениеДобавлено: 15 фев 2014 

Ледниковый экспресс



Год выпуска: 2010
Страна: Германия, Польша, Россия
Студия: Komplett-Media GmbH
Жанр: документальный
Продолжительность: 01:26:24

Перевод: Профессиональный (дикторский закадровый)
Субтитры: нет
Оригинальная аудиодорожка: нет

Описание:
Одна из самых живописных железнодорожных линий в мире имеет протяженность около 300 км и проходит через южную Швейцарию, связывая между собой Церматт и Санкт-Мориц. Маршрут по наиболее колоритным уголкам Альп обслуживает легендарный Ледниковый экспресс, который швейцарцы с любовью называют «самым медленным экспрессом в мире». Если взглянуть на потрясающую панораму за окном, высокая скорость покажется явно излишней. Поезд преодолевает 291 мост и виадук, а также 91 туннель. Поездка длится около 8 часов, и нет ни минуты, которую бы не стоило посвятить созерцанию картин, проносящихся за панорамными окнами. Перед нами промелькнут ледники, крутые вершины, глубокие скалистые ущелья и зеленые долины, кристально-чистые озера и реки, идиллические деревушки и живописные городки со старинными постройками. По дороге мы преодолеем виадуки, которые считаются шедеврами инженерной мысли, например, виадук Ландвассер, перекинутый на высоте 65 м. Наше путешествие начинается у подножья горы Маттерхорн, а заканчивается В Санкт-Морице — одном из самых изысканных и дорогих курортов Европы...





Исходник: DVD5 R5
Тип релиза: DVDRip
Контейнер: AVI

Видео: 704x400 (16:9), 25 fps, XviD ~ 1067 kbps avg, 0.152 bit/pixel
Аудио: 48 kHz, MP3 2.0, 128.00 kbps

Раздача от:
Общее
Полное имя : Shveycariya.2010.DVDRip-745_[New-team]_by_AVP_Studio.avi
Формат : AVI
Формат/Информация : Audio Video Interleave
Размер файла : 744 Мбайт
Продолжительность : 1 ч. 26 м.
Общий поток : 1205 Кбит/сек
Программа кодирования : VirtualDubModRus 1.5.10.2 (build 2542/release)
Библиотека кодирования : VirtualDubMod build 2542/release

Видео
Идентификатор : 0
Формат : MPEG-4 Visual
Профиль формата : Advanced Simple@L5
Параметр BVOP формата : 1
Параметр QPel формата : Нет
Параметр GMC формата : Без точки перехода
Параметр матрицы формата : Выборочная
Идентификатор кодека : XVID
Идентификатор кодека/Подсказка : XviD
Продолжительность : 1 ч. 26 м.
Битрейт : 1067 Кбит/сек
Ширина : 704 пикселя
Высота : 400 пикселей
Соотношение сторон : 16:9
Частота кадров : 25,000 кадров/сек
Цветовое пространство : YUV
Субдискретизация насыщенности : 4:2:0
Битовая глубина : 8 бит
Тип развёртки : Прогрессивная
Метод сжатия : С потерями
Бит/(Пиксели*Кадры) : 0.152
Размер потока : 659 Мбайт (89%)
Библиотека кодирования : XviD 73

Аудио
Идентификатор : 1
Формат : MPEG Audio
Версия формата : Version 1
Профиль формата : Layer 3
Идентификатор кодека : 55
Идентификатор кодека/Подсказка : MP3
Продолжительность : 1 ч. 26 м.
Вид битрейта : Постоянный
Битрейт : 128 Кбит/сек
Каналы : 2 канала
Частота : 48,0 КГц
Метод сжатия : С потерями
Размер потока : 79,1 Мбайт (11%)
Выравнивание : Соединение по промежуткам
Продолжительность промежутка : 40 мс. (1,00 видеокадр)
Время предзагрузки промежутка : 504 мс.
Библиотека кодирования : LAME3.99r
Настройки программы : -m s -V 4 -q 2 -lowpass 17 -b 128





   Похожие торренты   Торрент   Размер 
В этой теме нет новых непрочитанных сообщений. Путешествие по Европе. Выпуск №46: Швейцария (2010) DVDRip от New-Team

6 | 4

1.46 ГБ

В этой теме нет новых непрочитанных сообщений. Путешествие по Европе. Выпуск №46: Швейцария (2010) DVDRip-AVC от New-Team

10 | 30

1.46 ГБ

В этой теме нет новых непрочитанных сообщений. Путешествие по Европе. Выпуск №46: Швейцария (2010) DVD5 R5 от New-Team

2 | 4

3.79 ГБ

В этой теме нет новых непрочитанных сообщений. Путешествие по Европе. Выпуск №48: Сардиния (2010) DVDRip от New-Team

4 | 5

1.46 ГБ

В этой теме нет новых непрочитанных сообщений. Путешествие по Европе. Выпуск №28: Венгрия (2010) DVDRip от New-Team

0 | 2

744.98 МБ

В этой теме нет новых непрочитанных сообщений. Путешествие по Европе. Выпуск №28: Венгрия (2010) DVDRip-AVC от New-Team

4 | 3

1.46 ГБ

В этой теме нет новых непрочитанных сообщений. Путешествие по Европе. Выпуск №42: Бретань (2010) DVDRip от New-Team

5 | 3

746.79 МБ




Вы не можете начинать темы
Вы не можете отвечать на сообщения
Вы не можете редактировать свои сообщения
Вы не можете удалять свои сообщения
Вы не можете добавлять вложения

Перейти:  
Для Мосгорсуда, Роскомнадзора и рекламодателей: mosgorsud-torrent[собачка]yandex.ru
 Вход
ppkBB3cker v.2 © 2008-2014 @ PPK
[ Time : 0.021s | 16 Queries | GZIP : Off ]

cron