img image001 image001 image001 image001 image001 image001 image001 image001 image001 image001 image001 image001 image001 image001 image001

Planets Sun Sun Sun
Статистика раздачи
Автор: PriZraK | Размер: 744.7 МБ | Добавлен: 15 фев 2014
Раздают: 34    Качают: 13
Скачать торрент
Скачать торрент
Описание торрента

СообщениеДобавлено: 15 фев 2014 

Испания. Солнечная пристань. Родина фламенко и матадоров.



Год выпуска: 2008
Страна: Германия, Польша, Россия
Студия: Komplett-Media GmbH
Жанр: документальный
Продолжительность: 01:29:55

Перевод: Профессиональный (дикторский закадровый)
Субтитры: нет
Оригинальная аудиодорожка: нет

Описание:
Видео-экскурсия по стране, в которой творили Дали и Гауди.
На этот раз во время нашего кинопутешествия мы посетим солнечную Испанию. Выберемся в расположенный на Пиренеях национальный парк Айгуэс-Тортес-и-Лаго-Сан-Маурисио. Побываем в Фигерасе, где находится один из самых удивительных и самых посещаемых музеев в Испании — Театр-музей Дали. Мы прогуляемся по побережью Коста-Брава — знаменитому мировому куроту. В Барселоне мы восхитимся творениями Антонио Гауди, и прежде всего возвышающимся над городом Собором Святого Семейства. А в Памплоне нас ждет одна из самых популярных испанских фиест — Сан-Фермин, во время которой отважные смельчаки убегают от быков, несущихся по улицам города. Мы пройдем вместе с паломниками Путь Святого Иакова, чтобы попасть в Сантьяго-де-Компостела. Посетим живописную Кантабрию, романтическую Ламанчу и столицу страны — Мадрид. Мы увидим монастырь Пресвятой Девы Марии Гваделупской. Побываем в Мериде, Севилье и Кордове — древней столице мавров.





Исходник: DVD5 R5
Тип релиза: DVDRip
Контейнер: AVI

Видео: 608x464 (4:3), 25 fps, XviD ~ 1020 kbps avg, 0.145 bit/pixel
Аудио: 48 kHz, MP3 2.0, 128.00 kbps

Раздача от:
Общее
Полное имя : Ispaniya.Solnechnaya.pristan.Rodina.flamenko.i.matadorov.2008.DVDRip-745_[Youtracker]_by_AVP Studio.avi
Формат : AVI
Формат/Информация : Audio Video Interleave
Размер файла : 745 Мбайт
Продолжительность : 1 ч. 29 м.
Общий поток : 1158 Кбит/сек
Программа кодирования : VirtualDubModRus 1.5.10.2 (build 2542/release)
Библиотека кодирования : VirtualDubMod build 2542/release

Видео
Идентификатор : 0
Формат : MPEG-4 Visual
Профиль формата : Advanced Simple@L5
Параметр BVOP формата : 1
Параметр QPel формата : Нет
Параметр GMC формата : Без точки перехода
Параметр матрицы формата : Выборочная
Идентификатор кодека : XVID
Идентификатор кодека/Подсказка : XviD
Продолжительность : 1 ч. 29 м.
Битрейт : 1020 Кбит/сек
Ширина : 608 пикселей
Высота : 464 пикселя
Соотношение сторон : 4:3
Частота кадров : 25,000 кадров/сек
Цветовое пространство : YUV
Субдискретизация насыщенности : 4:2:0
Битовая глубина : 8 бит
Тип развёртки : Прогрессивная
Метод сжатия : С потерями
Бит/(Пиксели*Кадры) : 0.145
Размер потока : 656 Мбайт (88%)
Библиотека кодирования : XviD 73

Аудио
Идентификатор : 1
Формат : MPEG Audio
Версия формата : Version 1
Профиль формата : Layer 3
Идентификатор кодека : 55
Идентификатор кодека/Подсказка : MP3
Продолжительность : 1 ч. 29 м.
Вид битрейта : Постоянный
Битрейт : 128 Кбит/сек
Каналы : 2 канала
Частота : 48,0 КГц
Метод сжатия : С потерями
Размер потока : 82,3 Мбайт (11%)
Выравнивание : Соединение по промежуткам
Продолжительность промежутка : 40 мс. (1,00 видеокадр)
Время предзагрузки промежутка : 504 мс.
Библиотека кодирования : LAME3.99r
Настройки программы : -m s -V 4 -q 2 -lowpass 17 -b 128





   Похожие торренты   Торрент   Размер 
В этой теме нет новых непрочитанных сообщений. Путешествие по Европе. Выпуск №4: Испания (2008) DVDRip-AVC от New-Team

4 | 2

1.46 ГБ

В этой теме нет новых непрочитанных сообщений. Путешествие по Европе. Выпуск №4: Испания (2008) DVDRip от New-Team

52 | 2

1.46 ГБ

В этой теме нет новых непрочитанных сообщений. Путешествие по Европе. Выпуск №4: Испания (2008) DVD5 R5 от New-Team

2 | 4

3.93 ГБ

В этой теме нет новых непрочитанных сообщений. Путешествие по Европе. Выпуск №26: Сочи (2008) DVDRip-AVC от New-Team

0 | 4

1.09 ГБ

В этой теме нет новых непрочитанных сообщений. Путешествие по Европе. Выпуск №1: Париж (2008) DVDRip от New-Team

5 | 2

743.03 МБ

В этой теме нет новых непрочитанных сообщений. Путешествие по Европе. Выпуск №26: Сочи (2008) DVDRip от New-Team

0 | 3

744.78 МБ

В этой теме нет новых непрочитанных сообщений. Путешествие по Европе. Выпуск №1: Париж (2008) DVDRip от New-Team

4 | 2

1.64 ГБ




Вы не можете начинать темы
Вы не можете отвечать на сообщения
Вы не можете редактировать свои сообщения
Вы не можете удалять свои сообщения
Вы не можете добавлять вложения

Перейти:  
Для Мосгорсуда, Роскомнадзора и рекламодателей: mosgorsud-torrent[собачка]yandex.ru
 Вход
ppkBB3cker v.2 © 2008-2014 @ PPK
[ Time : 1.203s | 15 Queries | GZIP : Off ]

Торрент трекер RUTOR.IN, Не можете зайти на rutor.org? Какой новый адрес рутор? Какое зеркало рутор? Не работает rutor.org и зеркала? Тогда наш торрент специально для вас. Rutor.in неофициальное зеркало rutor. В случае если у Вас заблокирован rutor или вдруг Вы не можете на него зайти, то Вы без труда сможете скачать бесплатно и без рекламы последние новинки кино, игр, сериалов и прочего у нас, на Rutor.in. Не нужно использовать прокси, чтобы зайти на рутор, достаточно воспользоваться нашим ресурсом. Все новые фильмы, игры, сериалы, книги и музыка за 2013 и 2014 годы через торрент бесплатно. Скачивайте фильмы в хорошем качестве, игры для пк, xbox, playstation без регистрации. У нас вы найдете новые Зарубежные сериалы и Русские сериалы 2013, 2014, 2015 годов. Оставайтесь с нами, качайте любимые фильмы, игры, сериалы, книги и музыку.