img image001 image001 image001 image001 image001 image001 image001 image001 image001 image001 image001 image001 image001 image001 image001

Planets Sun Sun Sun
Статистика раздачи
Автор: PriZraK | Размер: 2.64 ГБ | Добавлен: 15 фев 2014
Раздают: 122    Качают: 8
Скачать торрент
Скачать торрент
Описание торрента

СообщениеДобавлено: 15 фев 2014 

Название: BBC: Викинги
Оригинальное название: BBC: Vikings
Год выпуска: 2012
Страна: Великобритания
Студия: BBC
Жанр: документальный
Продолжительность: 3 x ~00:59:00
Перевод: Профессиональный (двухголосый закадровый) - СВ-Дубль

Режиссер: Джон Истмэн, Рози Шелленберг / Jon Eastman, Rosie Schellenberg

Описание: Викинги - ранне средневековые преимущественно скандинавские мореходы, в VIII-XI веках совершавшие морские походы от Винланда до Биармии и от Каспия до Северной Африки. В основной массе это были свободные крестьяне, жившие на территории современных Швеции, Дании и Норвегии, которых толкали за пределы родных стран перенаселение и жажда лёгкой наживы...

Доп. информация: Присутствуют не озвученные места (~2-3 мин в каждой части)

Качество: HDTVRip
Формат:AVI
Видео кодек: XviD
Аудио кодек: AC-3
Видео: 16:9, 2000 Кбит/сек, 720x400, 25,000 кадров/сек
Аудио: AC-3, 2 канала, 128 Кбит/сек, 48,0 КГц

Часть 1.
Нил начинает, обнаруживая таинственный мир Викингов ' доисторические предки. Остатки заполненных оружием военных лодок, длинноволосых фермеров Бронзового века и шведской территории королевского дворца и ужасного языческого ритуала вызывают в воображении древнее прошлое, от которого должен был внезапно прорваться Возраст Викинга.
Часть 2.
Нил Оливер направляется из скандинавских родин в Россию, Турцию и Ирландию, чтобы проследить начало обширной торговой империи, которая обращалась с китайскими шелками так же умело как рабы Pictish. Нил обнаруживает мир 'starry-пятнистых дев ' и статуи Будды, которые являются миром далеко от нашего британского опыта владеющих топором воинов, хотя оказывается, что были довольно многие из тех также.
Часть 3.
Нил исследует, как Возраст Викинга наконец закончился, прослеживая норвежские путешествия открытия, первых датских королей и христианские преобразования, которые открыли дверь в европейское высшее общество. Он также раскрывает правду о короле Англии Кэньюте - он не был высокомерным лидером, который думал, что мог сдержать волны, но правителя Викинга всей империи севера и раннего последователя европейской стандартизации.
Общее
Полное имя : D:BBC. Vikings - Викинги (2012)BBC.Vikings.1of3.HDTV.[R.G.RealMT].avi
Формат : AVI
Формат/Информация : Audio Video Interleave
Размер файла : 904 Мбайт
Продолжительность : 59 м.
Общий поток : 2138 Кбит/сек
Программа кодирования : VirtualDubMod 1.5.10.3 | www.virtualdub-fr.org || (build 2550/release)
Библиотека кодирования : VirtualDubMod build 2550/release

Видео
Идентификатор : 0
Формат : MPEG-4 Visual
Профиль формата : Advanced Simple@L5
Параметр BVOP формата : 2
Параметр QPel формата : Нет
Параметр GMC формата : Без точки перехода
Параметр матрицы формата : Default (H.263)
Режим смешивания : Сжатый битовый поток
Идентификатор кодека : XVID
Идентификатор кодека/Подсказка : XviD
Продолжительность : 59 м.
Битрейт : 2000 Кбит/сек
Ширина : 720 пикселей
Высота : 400 пикселей
Соотношение сторон : 16:9
Частота кадров : 25,000 кадров/сек
Цветовое пространство : YUV
Субдискретизация насыщенности : 4:2:0
Битовая глубина : 8 бит
Тип развёртки : Прогрессивная
Метод сжатия : С потерями
Бит/(Пиксели*Кадры) : 0.278
Размер потока : 845 Мбайт (94%)
Библиотека кодирования : XviD 1.2.1 (UTC 2008-12-04)

Аудио
Идентификатор : 1
Формат : AC-3
Формат/Информация : Audio Coding 3
Расширение режима : CM (complete main)
Параметр Endianness формата : Big
Идентификатор кодека : 2000
Продолжительность : 59 м.
Вид битрейта : Постоянный
Битрейт : 128 Кбит/сек
Каналы : 2 канала
Расположение каналов : Front: L R
Частота : 48,0 КГц
Битовая глубина : 16 бит
Метод сжатия : С потерями
Размер потока : 54,1 Мбайт (6%)
Выравнивание : Разделение по промежуткам
Продолжительность промежутка : 40 мс. (1,00 видеокадр)
Время предзагрузки промежутка : 500 мс.


Релиз от:



   Похожие торренты   Торрент   Размер 
В этой теме нет новых непрочитанных сообщений. Викинги / Vikings [S02] (2014) HDTVRip | Sub

84 | 122

3.37 ГБ

В этой теме нет новых непрочитанных сообщений. Викинги / Vikings [S01] (2013) HDTVRip | Sub

22 | 8

3.15 ГБ

В этой теме нет новых непрочитанных сообщений. Викинги / Vikings [02x01-05] (2014) HDTVRip | Sub

54 | 64

1.79 ГБ

В этой теме нет новых непрочитанных сообщений. Викинги / Vikings [02x01-06] (2014) HDTVRip | Sub

63 | 97

2.05 ГБ

В этой теме нет новых непрочитанных сообщений. Викинги / Vikings [02x01-02] (2014) HDTVRip | Sub

33 | 96

763.69 МБ

В этой теме нет новых непрочитанных сообщений. Викинги / Vikings [02x01-09] (2014) HDTVRip | Sub

15 | 16

3.07 ГБ

В этой теме нет новых непрочитанных сообщений. Викинги / Vikings [S02] (2014) HDTVRip 720p | Sub

122 | 104

10.97 ГБ




Вы не можете начинать темы
Вы не можете отвечать на сообщения
Вы не можете редактировать свои сообщения
Вы не можете удалять свои сообщения
Вы не можете добавлять вложения

Перейти:  
Для Мосгорсуда, Роскомнадзора и рекламодателей: mosgorsud-torrent[собачка]yandex.ru
 Вход
ppkBB3cker v.2 © 2008-2014 @ PPK
[ Time : 0.039s | 16 Queries | GZIP : Off ]

Торрент трекер RUTOR.IN, Не можете зайти на rutor.org? Какой новый адрес рутор? Какое зеркало рутор? Не работает rutor.org и зеркала? Тогда наш торрент специально для вас. Rutor.in неофициальное зеркало rutor. В случае если у Вас заблокирован rutor или вдруг Вы не можете на него зайти, то Вы без труда сможете скачать бесплатно и без рекламы последние новинки кино, игр, сериалов и прочего у нас, на Rutor.in. Не нужно использовать прокси, чтобы зайти на рутор, достаточно воспользоваться нашим ресурсом. Все новые фильмы, игры, сериалы, книги и музыка за 2013 и 2014 годы через торрент бесплатно. Скачивайте фильмы в хорошем качестве, игры для пк, xbox, playstation без регистрации. У нас вы найдете новые Зарубежные сериалы и Русские сериалы 2013, 2014, 2015 годов. Оставайтесь с нами, качайте любимые фильмы, игры, сериалы, книги и музыку.
cron