img image001 image001 image001 image001 image001 image001 image001 image001 image001 image001 image001 image001 image001 image001 image001

Planets Sun Sun Sun
Статистика раздачи
Автор: PriZraK | Размер: 4.37 ГБ | Добавлен: 15 фев 2014
Раздают: 8    Качают: 2
Скачать торрент
Скачать торрент
Описание торрента

СообщениеДобавлено: 15 фев 2014 

Информация о фильме
Название: Последние львы
Оригинальное название: The Last Lions
Год выпуска: 2011
Жанр: Документальный
Выпущено: США, Ботсвана, National Geographic
Режиссер: Дерек Жубер
В ролях: Джереми Айронс

Перевод: Дублированный, Авторский


Сюжет фильма

Львы мудрые и сильные животные по праву считаются царями природы. Так и было до недавнего времени… Человеческий эгоизм, неукротимая жажда развития поставила этот вид кошачьих на грань вымирания. Те особи, что остались в дикой природе, находятся под пристальным вниманием как защитников природы, так и алчных браконьеров. Ведь на черном рынке шкура льва стоит невероятно большие суммы. И находятся те люди, которые истребляют и без того вымирающий вид. Документальная лента «Последние львы» говорит сама за себя: этот фильм полностью посвящен жизни львов, проблемам, которые связаны с выживанием вида и возможными способами спасения величественных животных…





Файл
Качество: BDRip 720p (исходник Blu-ray)
Видео: 1280x720, 5 507 Кбит/сек, 23,976 кадр/сек, AVC, x264, High@L4.1, 0.249 Бит/[Пиксели*Кадры], 2pass
Аудио 1: AC-3, 640 Кбит/сек, 6 канала(ов), 48,0 КГц -Авторский А.Дасевич
Аудио 2: AC-3, 192 Кбит/сек, 2 канала(ов), 48,0 КГц - Дублированный - И.Тарадайкин
Аудио 3: AC-3, 640 Кбит/сек, 6 канала(ов), 48,0 КГц -Английский
Продолжительность: 01:29:00

Автор Рипа:









Format : Matroska
Format version : Version 2
File size : 4.37 GiB
Duration : 1h 29mn
Overall bit rate : 6 977 Kbps
Movie name : Poslednie l'vy.(2011).BDRip.720p.[denis100]
Encoded date : UTC 2013-12-22 08:08:48
Writing application : mkvmerge v5.8.0 ('No Sleep / Pillow') built on Sep 2 2012 15:37:04
Writing library : libebml v1.2.3 + libmatroska v1.3.0

Video
ID : 1
Format : AVC
Format/Info : Advanced Video Codec
Format profile : High@L4.1
Format settings, CABAC : Yes
Format settings, ReFrames : 9 frames
Codec ID : V_MPEG4/ISO/AVC
Duration : 1h 29mn
Bit rate : 5 507 Kbps
Width : 1 280 pixels
Height : 720 pixels
Display aspect ratio : 16:9
Frame rate mode : Constant
Frame rate : 23.976 fps
Color space : YUV
Chroma subsampling : 4:2:0
Bit depth : 8 bits
Scan type : Progressive
Bits/(Pixel*Frame) : 0.249
Stream size : 3.36 GiB (77%)
Title : Poslednie l'vy.(2011).BDRip.720p.[denis100]
Writing library : x264 core 140 r2377 1ca7bb9
Encoding settings : cabac=1 / ref=9 / deblock=1:-3:-3 / analyse=0x3:0x133 / me=umh / subme=11 / psy=1 / psy_rd=1.00:0.10 / mixed_ref=1 / me_range=32 / chroma_me=1 / trellis=2 / 8x8dct=1 / cqm=0 / deadzone=21,11 / fast_pskip=0 / chroma_qp_offset=-3 / threads=6 / lookahead_threads=1 / sliced_threads=0 / nr=0 / decimate=0 / interlaced=0 / bluray_compat=0 / constrained_intra=0 / bframes=6 / b_pyramid=2 / b_adapt=2 / b_bias=0 / direct=3 / weightb=1 / open_gop=0 / weightp=2 / keyint=240 / keyint_min=23 / scenecut=40 / intra_refresh=0 / rc=2pass / mbtree=0 / bitrate=5507 / ratetol=1.0 / qcomp=0.60 / qpmin=0 / qpmax=69 / qpstep=4 / cplxblur=20.0 / qblur=0.5 / ip_ratio=1.40 / pb_ratio=1.30 / aq=1:0.90
Language : English
Default : Yes
Forced : No

Audio #1
ID : 2
Format : AC-3
Format/Info : Audio Coding 3
Mode extension : CM (complete main)
Format settings, Endianness : Big
Codec ID : A_AC3
Duration : 1h 29mn
Bit rate mode : Constant
Bit rate : 640 Kbps
Channel count : 6 channels
Channel positions : Front: L C R, Side: L R, LFE
Sampling rate : 48.0 KHz
Bit depth : 16 bits
Compression mode : Lossy
Stream size : 411 MiB (9%)
Title : Авторский А.Дасевич
Language : Russian
Default : No
Forced : No

Audio #2
ID : 3
Format : AC-3
Format/Info : Audio Coding 3
Mode extension : CM (complete main)
Format settings, Endianness : Big
Codec ID : A_AC3
Duration : 1h 29mn
Bit rate mode : Constant
Bit rate : 192 Kbps
Channel count : 2 channels
Channel positions : Front: L R
Sampling rate : 48.0 KHz
Bit depth : 16 bits
Compression mode : Lossy
Stream size : 123 MiB (3%)
Title : Дублированный - И.Тарадайкин
Language : Russian
Default : Yes
Forced : No

Audio #3
ID : 4
Format : AC-3
Format/Info : Audio Coding 3
Mode extension : CM (complete main)
Format settings, Endianness : Big
Codec ID : A_AC3
Duration : 1h 29mn
Bit rate mode : Constant
Bit rate : 640 Kbps
Channel count : 6 channels
Channel positions : Front: L C R, Side: L R, LFE
Sampling rate : 48.0 KHz
Bit depth : 16 bits
Compression mode : Lossy
Stream size : 411 MiB (9%)
Title : Английский
Language : English
Default : No
Forced : No



   Похожие торренты   Торрент   Размер 
В этой теме нет новых непрочитанных сообщений. Последние львы / The Last Lions (2011) BDRip 720p от Generalfilm

0 | 2

2.19 ГБ

В этой теме нет новых непрочитанных сообщений. Последние львы / The Last Lions (2011) BDRip 720p от Leonardo and Scarabey | D | И.Тарадайкин

9 | 3

3.75 ГБ

В этой теме нет новых непрочитанных сообщений. Последние львы / The Last Lions (2011) BDRip от HELLYWOOD

3 | 3

1.45 ГБ

В этой теме нет новых непрочитанных сообщений. Последние львы / The Last Lions (2011) BDRip-AVC от ExKinoRay

2 | 4

2.84 ГБ

В этой теме нет новых непрочитанных сообщений. Последние львы / The Last Lions (2011) BDRip 1080p - R.G. SubVoice & Uniongang

1 | 2

8.89 ГБ

В этой теме нет новых непрочитанных сообщений. Последние львы / The Last Lions (2011) DVDRip

9 | 4

700.88 МБ

В этой теме нет новых непрочитанных сообщений. Последние львы / The Last Lions (2011) HDRip - R.G. SubVoice & Uniongang

7 | 2

1.37 ГБ




Вы не можете начинать темы
Вы не можете отвечать на сообщения
Вы не можете редактировать свои сообщения
Вы не можете удалять свои сообщения
Вы не можете добавлять вложения

Перейти:  
Для Мосгорсуда, Роскомнадзора и рекламодателей: mosgorsud-torrent[собачка]yandex.ru
 Вход
ppkBB3cker v.2 © 2008-2014 @ PPK
[ Time : 0.036s | 15 Queries | GZIP : Off ]

Торрент трекер RUTOR.IN, Не можете зайти на rutor.org? Какой новый адрес рутор? Какое зеркало рутор? Не работает rutor.org и зеркала? Тогда наш торрент специально для вас. Rutor.in неофициальное зеркало rutor. В случае если у Вас заблокирован rutor или вдруг Вы не можете на него зайти, то Вы без труда сможете скачать бесплатно и без рекламы последние новинки кино, игр, сериалов и прочего у нас, на Rutor.in. Не нужно использовать прокси, чтобы зайти на рутор, достаточно воспользоваться нашим ресурсом. Все новые фильмы, игры, сериалы, книги и музыка за 2013 и 2014 годы через торрент бесплатно. Скачивайте фильмы в хорошем качестве, игры для пк, xbox, playstation без регистрации. У нас вы найдете новые Зарубежные сериалы и Русские сериалы 2013, 2014, 2015 годов. Оставайтесь с нами, качайте любимые фильмы, игры, сериалы, книги и музыку.