img image001 image001 image001 image001 image001 image001 image001 image001 image001 image001 image001 image001 image001 image001 image001

Planets Sun Sun Sun
Статистика раздачи
Автор: PriZraK | Размер: 964.44 МБ | Добавлен: 15 фев 2014
Раздают: 1    Качают: 2
Скачать торрент
Скачать торрент
Описание торрента

СообщениеДобавлено: 15 фев 2014 

«Острова счастья»



Год выпуска: 2011
Страна: Германия, Польша, Россия
Студия: Komplett-Media GmbH
Жанр: документальный
Продолжительность: 00:58:51

Перевод: Профессиональный (дикторский закадровый)
Субтитры: нет
Оригинальная аудиодорожка: нет

Описание:
Мадейра, самый большой остров одноименного архипелага, расположенный в Атлантическом океане к северу от Канарских островов, очаровывает мягким климатом, буйной растительностью и прекрасными пейзажами. Наше путешествие по острову мы начнем в столице Фуншал, полной исторических зданий, парков, гостеприимных кафе и винных погребов. В расположенном неподалеку курорте Монте мы покатаемся на знаменитых ивовых санях, которые в XIX веке использовались как транспортное средство на скользких базальтовых дорогах. Следующие остановки на нашем пути — это живописный порт Камара-де-Лобуш, идиллический рыбацкий поселок Рибейра-Брава и прелестный городок Жардим-ду-Мар. Через плато Пауль-да-Серра мы попадаем на северное побережье к Порту-Мониш. Путешествие вдоль скалистого побережья — уже само по себе развлечение. Опознавательным знаком Сантаны являются треугольные дома из дерева и соломы, а также прекрасные плетеные изделия из ивовых ветвей. Еще одно излюбленное место туристов со всего света — это расположенный в 50 километрах от Мадейры остров Порту-Санту. Он представляет собой идеальное место для тех, кто стремится провести отпуск на лоне природы, в тишине и спокойствии...





Исходник: DVD5 R5
Тип релиза: DVDRip
Контейнер: AVI

Видео: 688x528 (4:3), 25 fps, XviD ~ 1892 kbps avg, 0.208 bit/pixel
Аудио: 48 kHz, Dolby AC3 2.0, 192.00 kbps Русский
Аудио: 48 kHz, Dolby AC3 2.0, 192.00 kbps Украинский

Раздача от:
Общее
Полное имя : Madeyra.2011.DVDRip_[New-team]_by_AVP_Studio.avi
Формат : AVI
Формат/Информация : Audio Video Interleave
Размер файла : 964 Мбайт
Продолжительность : 58 м.
Общий поток : 2291 Кбит/сек
Программа кодирования : VirtualDubModRus 1.5.10.2 (build 2542/release)
Библиотека кодирования : VirtualDubMod build 2542/release

Видео
Идентификатор : 0
Формат : MPEG-4 Visual
Профиль формата : Advanced Simple@L5
Параметр BVOP формата : 1
Параметр QPel формата : Нет
Параметр GMC формата : Без точки перехода
Параметр матрицы формата : Выборочная
Идентификатор кодека : XVID
Идентификатор кодека/Подсказка : XviD
Продолжительность : 58 м.
Битрейт : 1892 Кбит/сек
Ширина : 688 пикселей
Высота : 528 пикселей
Соотношение сторон : 4:3
Частота кадров : 25,000 кадров/сек
Цветовое пространство : YUV
Субдискретизация насыщенности : 4:2:0
Битовая глубина : 8 бит
Тип развёртки : Прогрессивная
Метод сжатия : С потерями
Бит/(Пиксели*Кадры) : 0.208
Размер потока : 797 Мбайт (83%)
Библиотека кодирования : XviD 73

Аудио #1
Идентификатор : 1
Формат : AC-3
Формат/Информация : Audio Coding 3
Расширение режима : CM (complete main)
Идентификатор кодека : 2000
Продолжительность : 58 м.
Вид битрейта : Постоянный
Битрейт : 192 Кбит/сек
Каналы : 2 канала
Расположение каналов : Front: L R
Частота : 48,0 КГц
Битовая глубина : 16 бит
Метод сжатия : С потерями
Размер потока : 80,8 Мбайт (8%)
Выравнивание : Разделение по промежуткам
Продолжительность промежутка : 40 мс. (1,00 видеокадр)
Время предзагрузки промежутка : 500 мс.

Аудио #2
Идентификатор : 2
Формат : AC-3
Формат/Информация : Audio Coding 3
Расширение режима : CM (complete main)
Идентификатор кодека : 2000
Продолжительность : 58 м.
Вид битрейта : Постоянный
Битрейт : 192 Кбит/сек
Каналы : 2 канала
Расположение каналов : Front: L R
Частота : 48,0 КГц
Битовая глубина : 16 бит
Метод сжатия : С потерями
Размер потока : 80,8 Мбайт (8%)
Выравнивание : Разделение по промежуткам
Продолжительность промежутка : 40 мс. (1,00 видеокадр)
Время предзагрузки промежутка : 500 мс





   Похожие торренты   Торрент   Размер 
В этой теме нет новых непрочитанных сообщений. Путешествие по Европе. Выпуск №47: Мадейра и Порту-Санту (2011) DVDRip-AVC от New-Team

5 | 4

744.38 МБ

В этой теме нет новых непрочитанных сообщений. Путешествие по Европе. Выпуск №47: Мадейра и Порту-Санту (2011) DVD5 R5 от New-Team

3 | 3

2.8 ГБ

В этой теме нет новых непрочитанных сообщений. Золотой глобус. Выпуск 80. Мадейра и Порту-Санту. Острова счастья (2011) DVDRip от KinoZalSat

4 | 8

700.89 МБ

В этой теме нет новых непрочитанных сообщений. Путешествие по Европе. Выпуск №30: Франция (2011) DVDRip от New-Team

4 | 2

1.46 ГБ

В этой теме нет новых непрочитанных сообщений. Путешествие по Европе. Выпуск №41: Польша (2011) DVDRip от New-Team

4 | 3

742.22 МБ

В этой теме нет новых непрочитанных сообщений. Путешествие по Европе. Выпуск №40: Бавария (2011) DVDRip от New-Team

10 | 4

746.82 МБ

В этой теме нет новых непрочитанных сообщений. Путешествие по Европе. Выпуск №30: Франция (2011) DVDRip-AVC от New-Team

4 | 15

1.46 ГБ




Вы не можете начинать темы
Вы не можете отвечать на сообщения
Вы не можете редактировать свои сообщения
Вы не можете удалять свои сообщения
Вы не можете добавлять вложения

Перейти:  
Для Мосгорсуда, Роскомнадзора и рекламодателей: mosgorsud-torrent[собачка]yandex.ru
 Вход
ppkBB3cker v.2 © 2008-2014 @ PPK
[ Time : 0.057s | 15 Queries | GZIP : Off ]

Торрент трекер RUTOR.IN, Не можете зайти на rutor.org? Какой новый адрес рутор? Какое зеркало рутор? Не работает rutor.org и зеркала? Тогда наш торрент специально для вас. Rutor.in неофициальное зеркало rutor. В случае если у Вас заблокирован rutor или вдруг Вы не можете на него зайти, то Вы без труда сможете скачать бесплатно и без рекламы последние новинки кино, игр, сериалов и прочего у нас, на Rutor.in. Не нужно использовать прокси, чтобы зайти на рутор, достаточно воспользоваться нашим ресурсом. Все новые фильмы, игры, сериалы, книги и музыка за 2013 и 2014 годы через торрент бесплатно. Скачивайте фильмы в хорошем качестве, игры для пк, xbox, playstation без регистрации. У нас вы найдете новые Зарубежные сериалы и Русские сериалы 2013, 2014, 2015 годов. Оставайтесь с нами, качайте любимые фильмы, игры, сериалы, книги и музыку.