img image001 image001 image001 image001 image001 image001 image001 image001 image001 image001 image001 image001 image001 image001 image001

Planets Sun Sun Sun
Статистика раздачи
Автор: PriZraK | Размер: 2.18 ГБ | Добавлен: 15 фев 2014
Раздают: 269    Качают: 28
Скачать торрент
Скачать торрент
Описание торрента

СообщениеДобавлено: 15 фев 2014 

Информация о фильме
Название: Хищники океанов
Оригинальное название: Ocean Predators
Год выпуска: 2013
Жанр: Документальный
Выпущено: США, Los Banditos Films
Режиссер: Бенжамин Эйчер

Перевод: Дублированный


Сюжет фильма

Присоединяйтесь к захватывающему путешествию в глубины океана в поисках самых опасных хищников! Вас ждет немало поразительных открытий об этих завораживающих и умелых охотниках. Долой мифы и легенды - готовы ли вы узнать настоящую правду об акулах, барракудах и муренах. Уникальные документальные кадры, снятые с помощью 3D-стереоскопа, покажут все, что вы хотели знать о настоящих Королях Океана!





Файл
Качество: BDRip 720p (исходник Blu-ray)
Видео: 1280x720, 5 000 Кбит/сек, 23,976 кадр/сек, AVC, x264, High@L4.1, 0.226 Бит/[Пиксели*Кадры], 2pass
Аудио: DTS, 447 Кбит/сек, 2 канала(ов), 48,0 КГц - Дублированный
Продолжительность: 00:57:19

Автор Рипа:










Format : Matroska
Format version : Version 2
File size : 2.18 GiB
Duration : 57mn 19s
Overall bit rate : 5 444 Kbps
Movie name : Hishhniki okeanov.(2013).BDRip.720p.[denis100]
Encoded date : UTC 2013-12-23 08:31:27
Writing application : mkvmerge v5.8.0 ('No Sleep / Pillow') built on Sep 2 2012 15:37:04
Writing library : libebml v1.2.3 + libmatroska v1.3.0

Video
ID : 1
Format : AVC
Format/Info : Advanced Video Codec
Format profile : High@L4.1
Format settings, CABAC : Yes
Format settings, ReFrames : 9 frames
Codec ID : V_MPEG4/ISO/AVC
Duration : 57mn 19s
Bit rate : 5 000 Kbps
Width : 1 280 pixels
Height : 720 pixels
Display aspect ratio : 16:9
Frame rate mode : Constant
Frame rate : 23.976 fps
Color space : YUV
Chroma subsampling : 4:2:0
Bit depth : 8 bits
Scan type : Progressive
Bits/(Pixel*Frame) : 0.226
Stream size : 1.96 GiB (90%)
Title : Hishhniki okeanov.(2013).BDRip.720p от denis100
Writing library : x264 core 140 r2377 1ca7bb9
Encoding settings : cabac=1 / ref=9 / deblock=1:-3:-3 / analyse=0x3:0x133 / me=umh / subme=11 / psy=1 / psy_rd=1.00:0.10 / mixed_ref=1 / me_range=32 / chroma_me=1 / trellis=2 / 8x8dct=1 / cqm=0 / deadzone=21,11 / fast_pskip=0 / chroma_qp_offset=-3 / threads=6 / lookahead_threads=1 / sliced_threads=0 / nr=0 / decimate=0 / interlaced=0 / bluray_compat=0 / constrained_intra=0 / bframes=7 / b_pyramid=2 / b_adapt=2 / b_bias=0 / direct=3 / weightb=1 / open_gop=0 / weightp=2 / keyint=240 / keyint_min=23 / scenecut=40 / intra_refresh=0 / rc=2pass / mbtree=0 / bitrate=5000 / ratetol=1.0 / qcomp=0.60 / qpmin=0 / qpmax=69 / qpstep=4 / cplxblur=20.0 / qblur=0.5 / ip_ratio=1.40 / pb_ratio=1.30 / aq=1:0.90
Language : English
Default : Yes
Forced : No

Audio
ID : 2
Format : DTS
Format/Info : Digital Theater Systems
Mode : 16
Format settings, Endianness : Big
Codec ID : A_DTS
Duration : 57mn 19s
Bit rate mode : Constant
Bit rate : 447 Kbps
Channel count : 2 channels
Channel positions : Front: L R
Sampling rate : 48.0 KHz
Bit depth : 24 bits
Compression mode : Lossy
Stream size : 183 MiB (8%)
Title : Дублированный
Language : Russian
Default : Yes
Forced : No




   Похожие торренты   Торрент   Размер 
В этой теме нет новых непрочитанных сообщений. Хищники океанов / Ocean Predators (2013) BDRip от -=HD-NET=-

80 | 10

551.85 МБ

В этой теме нет новых непрочитанных сообщений. Хищники океанов 3D / Ocean Predators 3D (2013) BDRip-AVC от ExKinoRay

74 | 10

1.56 ГБ

В этой теме нет новых непрочитанных сообщений. Хищники океанов 3D / Ocean Predators 3D (2013) BDRip от ExKinoRay

24 | 5

701.95 МБ

В этой теме нет новых непрочитанных сообщений. Хищники океанов / Ocean Predators (2013) BDRip 1080p | 3D-Video | halfOU

266 | 31

7.8 ГБ

В этой теме нет новых непрочитанных сообщений. Хищники океанов / Ocean Predators (2013) HDRip от Smart-Tracker | КПК

5 | 3

419.19 МБ

В этой теме нет новых непрочитанных сообщений. Хищники / Predators (2010) BDRip 720p

19 | 5

6.04 ГБ

В этой теме нет новых непрочитанных сообщений. Хищники / Predators (2010) BDRip 720p | D

356 | 39

6.04 ГБ




Вы не можете начинать темы
Вы не можете отвечать на сообщения
Вы не можете редактировать свои сообщения
Вы не можете удалять свои сообщения
Вы не можете добавлять вложения

Перейти:  
Для Мосгорсуда, Роскомнадзора и рекламодателей: mosgorsud-torrent[собачка]yandex.ru
 Вход
ppkBB3cker v.2 © 2008-2014 @ PPK
[ Time : 0.048s | 16 Queries | GZIP : Off ]

Торрент трекер RUTOR.IN, Не можете зайти на rutor.org? Какой новый адрес рутор? Какое зеркало рутор? Не работает rutor.org и зеркала? Тогда наш торрент специально для вас. Rutor.in неофициальное зеркало rutor. В случае если у Вас заблокирован rutor или вдруг Вы не можете на него зайти, то Вы без труда сможете скачать бесплатно и без рекламы последние новинки кино, игр, сериалов и прочего у нас, на Rutor.in. Не нужно использовать прокси, чтобы зайти на рутор, достаточно воспользоваться нашим ресурсом. Все новые фильмы, игры, сериалы, книги и музыка за 2013 и 2014 годы через торрент бесплатно. Скачивайте фильмы в хорошем качестве, игры для пк, xbox, playstation без регистрации. У нас вы найдете новые Зарубежные сериалы и Русские сериалы 2013, 2014, 2015 годов. Оставайтесь с нами, качайте любимые фильмы, игры, сериалы, книги и музыку.
cron