img image001 image001 image001 image001 image001 image001 image001 image001 image001 image001 image001 image001 image001 image001 image001

Planets Sun Sun Sun
Статистика раздачи
Автор: PriZraK | Размер: 744.38 МБ | Добавлен: 15 фев 2014
Раздают: 2    Качают: 3
Скачать торрент
Скачать торрент
Описание торрента

СообщениеДобавлено: 15 фев 2014 

«Острова счастья»



Год выпуска: 2011
Страна: Германия, Польша, Россия
Студия: Komplett-Media GmbH
Жанр: документальный
Продолжительность: 00:58:51

Перевод: Профессиональный (дикторский закадровый)
Субтитры: нет
Оригинальная аудиодорожка: нет

Описание:
Мадейра, самый большой остров одноименного архипелага, расположенный в Атлантическом океане к северу от Канарских островов, очаровывает мягким климатом, буйной растительностью и прекрасными пейзажами. Наше путешествие по острову мы начнем в столице Фуншал, полной исторических зданий, парков, гостеприимных кафе и винных погребов. В расположенном неподалеку курорте Монте мы покатаемся на знаменитых ивовых санях, которые в XIX веке использовались как транспортное средство на скользких базальтовых дорогах. Следующие остановки на нашем пути — это живописный порт Камара-де-Лобуш, идиллический рыбацкий поселок Рибейра-Брава и прелестный городок Жардим-ду-Мар. Через плато Пауль-да-Серра мы попадаем на северное побережье к Порту-Мониш. Путешествие вдоль скалистого побережья — уже само по себе развлечение. Опознавательным знаком Сантаны являются треугольные дома из дерева и соломы, а также прекрасные плетеные изделия из ивовых ветвей. Еще одно излюбленное место туристов со всего света — это расположенный в 50 километрах от Мадейры остров Порту-Санту. Он представляет собой идеальное место для тех, кто стремится провести отпуск на лоне природы, в тишине и спокойствии...





Исходник: DVD5 R5
Тип релиза: DVDRip-AVC
Контейнер: MKV

Видео: 696->768x574 (1,293:1), 25 fps, H264 ~ 1382 kbps avg, 0.138 bit/pixel
Аудио: 48 kHz, Dolby AC3 2.0, 192.00 kbps Русский
Аудио: 48 kHz, Dolby AC3 2.0, 192.00 kbps Украинский

Раздача от:
Общее
Полное имя : Madeyra.2011.DVDRip-AVC_[New-team]_by_AVP_Studio.mkv
Формат : Matroska
Версия формата : Version 4 / Version 2
Размер файла : 744 Мбайт
Продолжительность : 58 м.
Общий поток : 1768 Кбит/сек
Название фильма : Madeyra.2011.DVDRip-AVC_[New-team]_by_AVP_Studio
Дата кодирования : UTC 2013-12-23 18:00:24
Программа кодирования : mkvmerge v6.6.0 ('The Edge Of The In Between') built on Dec 1 2013 17:55:00
Библиотека кодирования : libebml v1.3.0 + libmatroska v1.4.1

Видео
Идентификатор : 1
Формат : AVC
Формат/Информация : Advanced Video Codec
Профиль формата : High@L4.1
Параметр CABAC формата : Да
Параметр ReFrames формата : 6 кадров
Идентификатор кодека : V_MPEG4/ISO/AVC
Продолжительность : 58 м.
Битрейт : 1382 Кбит/сек
Ширина : 696 пикселей
Высота : 574 пикселя
Соотношение сторон : 1,293
Частота кадров : 25,000 кадров/сек
Цветовое пространство : YUV
Субдискретизация насыщенности : 4:2:0
Битовая глубина : 8 бит
Тип развёртки : Прогрессивная
Бит/(Пиксели*Кадры) : 0.138
Размер потока : 568 Мбайт (76%)
Заголовок : Источник DVD
Библиотека кодирования : x264 core 138 r2356 a1d3d17
Настройки программы : cabac=1 / ref=6 / deblock=1:-2:-1 / analyse=0x3:0x113 / me=umh / subme=10 / psy=1 / psy_rd=1.00:0.05 / mixed_ref=1 / me_range=32 / chroma_me=1 / trellis=2 / 8x8dct=1 / cqm=0 / deadzone=21,11 / fast_pskip=0 / chroma_qp_offset=-3 / threads=3 / lookahead_threads=1 / sliced_threads=0 / nr=0 / decimate=0 / interlaced=0 / bluray_compat=0 / constrained_intra=0 / bframes=8 / b_pyramid=2 / b_adapt=2 / b_bias=0 / direct=3 / weightb=1 / open_gop=0 / weightp=2 / keyint=250 / keyint_min=25 / scenecut=40 / intra_refresh=0 / rc=2pass / mbtree=0 / bitrate=1382 / ratetol=1.0 / qcomp=0.60 / qpmin=0 / qpmax=69 / qpstep=4 / cplxblur=20.0 / qblur=0.5 / ip_ratio=1.40 / pb_ratio=1.30 / aq=1:1.00
Язык : German
Default : Да
Forced : Нет

Аудио #1
Идентификатор : 2
Формат : AC-3
Формат/Информация : Audio Coding 3
Расширение режима : CM (complete main)
Идентификатор кодека : A_AC3
Продолжительность : 58 м.
Вид битрейта : Постоянный
Битрейт : 192 Кбит/сек
Каналы : 2 канала
Расположение каналов : Front: L R
Частота : 48,0 КГц
Битовая глубина : 16 бит
Метод сжатия : С потерями
Размер потока : 80,8 Мбайт (11%)
Заголовок : Источник DVD Dolby Digital 2,0 192 kbps
Язык : Russian
Default : Да
Forced : Нет

Аудио #2
Идентификатор : 3
Формат : AC-3
Формат/Информация : Audio Coding 3
Расширение режима : CM (complete main)
Идентификатор кодека : A_AC3
Продолжительность : 58 м.
Вид битрейта : Постоянный
Битрейт : 192 Кбит/сек
Каналы : 2 канала
Расположение каналов : Front: L R
Частота : 48,0 КГц
Битовая глубина : 16 бит
Метод сжатия : С потерями
Размер потока : 80,8 Мбайт (11%)
Заголовок : Источник DVD Dolby Digital 2,0 192 kbps
Язык : Ukrainian
Default : Нет
Forced : Нет

Меню
00:00:00.000 : ru:00:00:00.000000000
00:05:00.000 : :00:05:00.000000000
00:10:00.000 : :00:10:00.000000000
00:15:00.000 : :00:15:00.000000000
00:20:00.000 : :00:20:00.000000000
00:25:00.000 : :00:25:00.000000000
00:30:00.000 : :00:30:00.000000000
00:35:00.000 : :00:35:00.000000000
00:40:00.000 : :00:40:00.000000000
00:45:00.000 : :00:45:00.000000000
00:50:00.000 : :00:50:00.000000000
00:55:00.000 : :00:55:00.000000000





   Похожие торренты   Торрент   Размер 
В этой теме нет новых непрочитанных сообщений. Путешествие по Европе. Выпуск №47: Мадейра и Порту-Санту (2011) DVDRip от New-Team

1 | 2

964.44 МБ

В этой теме нет новых непрочитанных сообщений. Путешествие по Европе. Выпуск №47: Мадейра и Порту-Санту (2011) DVD5 R5 от New-Team

3 | 3

2.8 ГБ

В этой теме нет новых непрочитанных сообщений. Золотой глобус. Выпуск 80. Мадейра и Порту-Санту. Острова счастья (2011) DVDRip от KinoZalSat

4 | 8

700.89 МБ

В этой теме нет новых непрочитанных сообщений. Путешествие по Европе. Выпуск №30: Франция (2011) DVDRip от New-Team

0 | 1

744.18 МБ

В этой теме нет новых непрочитанных сообщений. Путешествие по Европе. Выпуск №41: Польша (2011) DVDRip от New-Team

6 | 3

1.45 ГБ

В этой теме нет новых непрочитанных сообщений. Путешествие по Европе. Выпуск №39: Менорка (2011) DVDRip-AVC от New-Team

2 | 3

744.43 МБ

В этой теме нет новых непрочитанных сообщений. Путешествие по Европе. Выпуск №30: Франция (2011) DVDRip от New-Team

4 | 2

1.46 ГБ




Вы не можете начинать темы
Вы не можете отвечать на сообщения
Вы не можете редактировать свои сообщения
Вы не можете удалять свои сообщения
Вы не можете добавлять вложения

Перейти:  
Для Мосгорсуда, Роскомнадзора и рекламодателей: mosgorsud-torrent[собачка]yandex.ru
 Вход
ppkBB3cker v.2 © 2008-2014 @ PPK
[ Time : 0.032s | 16 Queries | GZIP : Off ]

cron