img image001 image001 image001 image001 image001 image001 image001 image001 image001 image001 image001 image001 image001 image001 image001

Planets Sun Sun Sun
Статистика раздачи
Автор: PriZraK | Размер: 5.55 ГБ | Добавлен: 15 фев 2014
Раздают: 2    Качают: 5
Скачать торрент
Скачать торрент
Описание торрента

СообщениеДобавлено: 15 фев 2014 

Информация о фильме
Название: Майорка
Оригинальное название: Mallorca
Год выпуска: 2012
Жанр: Документальный, видовой
Выпущено: Германия, Zenith Pictures
Режиссер: Александр Р. Вулф

Перевод: Не требуется


Сюжет фильма

Майорка была одним из любимых мест отдыха немцев. Сначала были только солнце, пляж и алкоголь, которые привлекают туристов на испанский остров. В настоящее время все больше и больше раскрывается с другой стороны многогранность острова, потому что Майорка может предложить активным путешественникам в дополнение еще намного больше......


Файл
Качество: BDRip 1080p (исходник Blu-ray)
Видео: 1920x1080, 9 497 Кбит/сек, 23,976 кадр/сек, AVC, x264, High@L4.1, 0.191 Бит/[Пиксели*Кадры], 2pass
Аудио: AC-3, 640 Кбит/сек, 6 канала(ов), 48,0 КГц - музыкальное сопровождение
Автор Рипа:









Format : Matroska
Format version : Version 2
File size : 5.55 GiB
Duration : 1h 16mn
Overall bit rate : 10.3 Mbps
Movie name : Mallorca.(2012).BDRip.1080p.[denis100]
Encoded date : UTC 2013-12-27 10:29:26
Writing application : mkvmerge v5.8.0 ('No Sleep / Pillow') built on Sep 2 2012 15:37:04
Writing library : libebml v1.2.3 + libmatroska v1.3.0

Video
ID : 1
Format : AVC
Format/Info : Advanced Video Codec
Format profile : High@L4.1
Format settings, CABAC : Yes
Format settings, ReFrames : 4 frames
Codec ID : V_MPEG4/ISO/AVC
Duration : 1h 16mn
Bit rate : 9 497 Kbps
Width : 1 920 pixels
Height : 1 080 pixels
Display aspect ratio : 16:9
Frame rate mode : Constant
Frame rate : 23.976 fps
Color space : YUV
Chroma subsampling : 4:2:0
Bit depth : 8 bits
Scan type : Progressive
Bits/(Pixel*Frame) : 0.191
Stream size : 5.10 GiB (92%)
Title : Mallorca.(2012).BDRip.1080p от denis100
Writing library : x264 core 140 r2377 1ca7bb9
Encoding settings : cabac=1 / ref=4 / deblock=1:-3:-3 / analyse=0x3:0x133 / me=umh / subme=10 / psy=1 / psy_rd=1.00:0.10 / mixed_ref=1 / me_range=32 / chroma_me=1 / trellis=2 / 8x8dct=1 / cqm=0 / deadzone=21,11 / fast_pskip=0 / chroma_qp_offset=-3 / threads=6 / lookahead_threads=1 / sliced_threads=0 / nr=0 / decimate=0 / interlaced=0 / bluray_compat=0 / constrained_intra=0 / bframes=5 / b_pyramid=2 / b_adapt=2 / b_bias=0 / direct=3 / weightb=1 / open_gop=0 / weightp=2 / keyint=240 / keyint_min=23 / scenecut=40 / intra_refresh=0 / rc=crf / mbtree=0 / crf=19.0 / qcomp=0.60 / qpmin=0 / qpmax=69 / qpstep=4 / ip_ratio=1.40 / pb_ratio=1.30 / aq=1:0.90
Language : English
Default : Yes
Forced : No

Audio
ID : 2
Format : AC-3
Format/Info : Audio Coding 3
Mode extension : CM (complete main)
Format settings, Endianness : Big
Codec ID : A_AC3
Duration : 1h 16mn
Bit rate mode : Constant
Bit rate : 640 Kbps
Channel count : 6 channels
Channel positions : Front: L C R, Side: L R, LFE
Sampling rate : 48.0 KHz
Bit depth : 16 bits
Compression mode : Lossy
Stream size : 352 MiB (6%)
Title : музыкальное сопровождение
Language : English
Default : Yes
Forced : No




   Похожие торренты   Торрент   Размер 
В этой теме нет новых непрочитанных сообщений. Майорка / Mallorca (2012) BDRip 720p от denis 100

18 | 2

2.94 ГБ

В этой теме нет новых непрочитанных сообщений. Мальорка / Mallorca (2012) BDRip 1080p | 3D-Video

52 | 12

9.43 ГБ

В этой теме нет новых непрочитанных сообщений. Клятва / The Vow (2012) BDRip 1080p от denis 100

242 | 87

7.76 ГБ

В этой теме нет новых непрочитанных сообщений. Жизнь Пи / Life of Pi (2012) BDRip 1080p от denis 100 | D, A

288 | 5

11.55 ГБ

В этой теме нет новых непрочитанных сообщений. Бавария - Путешествие мечты / Bavaria - Traumreise durch Bayern (2012) BDRip 1080p от denis 100 | P1

7 | 3

7.77 ГБ

В этой теме нет новых непрочитанных сообщений. Али / Ali (2001) BDRip 1080p от denis 100

111 | 70

15.76 ГБ

В этой теме нет новых непрочитанных сообщений. Мне бы в небо / Up in the Air (2009) BDRip 1080p от denis 100

183 | 30

7.75 ГБ




Вы не можете начинать темы
Вы не можете отвечать на сообщения
Вы не можете редактировать свои сообщения
Вы не можете удалять свои сообщения
Вы не можете добавлять вложения

Перейти:  
Для Мосгорсуда, Роскомнадзора и рекламодателей: mosgorsud-torrent[собачка]yandex.ru
 Вход
ppkBB3cker v.2 © 2008-2014 @ PPK
[ Time : 0.060s | 15 Queries | GZIP : Off ]

Торрент трекер RUTOR.IN, Не можете зайти на rutor.org? Какой новый адрес рутор? Какое зеркало рутор? Не работает rutor.org и зеркала? Тогда наш торрент специально для вас. Rutor.in неофициальное зеркало rutor. В случае если у Вас заблокирован rutor или вдруг Вы не можете на него зайти, то Вы без труда сможете скачать бесплатно и без рекламы последние новинки кино, игр, сериалов и прочего у нас, на Rutor.in. Не нужно использовать прокси, чтобы зайти на рутор, достаточно воспользоваться нашим ресурсом. Все новые фильмы, игры, сериалы, книги и музыка за 2013 и 2014 годы через торрент бесплатно. Скачивайте фильмы в хорошем качестве, игры для пк, xbox, playstation без регистрации. У нас вы найдете новые Зарубежные сериалы и Русские сериалы 2013, 2014, 2015 годов. Оставайтесь с нами, качайте любимые фильмы, игры, сериалы, книги и музыку.