img image001 image001 image001 image001 image001 image001 image001 image001 image001 image001 image001 image001 image001 image001 image001

Planets Sun Sun Sun
Статистика раздачи
Автор: PriZraK | Размер: 847.85 МБ | Добавлен: 15 фев 2014
Раздают: 66    Качают: 2
Скачать торрент
Скачать торрент
Описание торрента

СообщениеДобавлено: 15 фев 2014 

Год выпуска: 2013
Страна: США
Студия: Pangloss Films
Жанр: документальный
Продолжительность: 00:52:56
Перевод: Профессиональный (двухголосый закадровый) - студия "Selena International"
Субтитры: нет

Режиссер: Питер Йост / Peter Yost

Описание: Технические трюки из научно-фантастических фильмов стали реальностью, как только появились Дроны. Некоторые из них по размерам схожи с истребителями, другие — с птичками и насекомыми. Разработки этих новейших летательных аппаратов обычно держаться в секрете, но съемочной группе научного телепроекта NOVA (канал PBS) удалось поговорить с инженерами, которые создают американские беспилотники. В программе представлены интервью со специалистами британской оборонной компании BAE Systems, сотрудниками агентства DARPA и Массачусетского технологического института (MIT), а также военными и политиками. Вы сможете узнать о том, как создаются беспилотники США, и услышать аргументы людей, которые выступают против их использования. Уникальные камеры, способные запечатлеть целый город во всех деталях; стаи крохотных роботов, которые могут самостоятельно принимать решения; летательные аппараты, зависающие в воздухе на несколько дней. Это все Дроны. Сегодня эти машины меняют привычные представления о войне, разведке и авиации.



Качество: WEB-DLRip
Формат:AVI
Видео кодек: XviD
Аудио кодек: AC-3
Видео: 16:9, 2099 Кбит/сек, 720x400, 25,000 кадров/сек
Аудио: AC-3, 2 канала, 128 Кбит/сек, 48,0 КГц

Общее
Полное имя : D:PBS Nova Rise of the Drones.[R.G.RealMT].avi
Формат : AVI
Формат/Информация : Audio Video Interleave
Размер файла : 848 Мбайт
Продолжительность : 52 м.
Общий поток : 2239 Кбит/сек
Программа кодирования : VirtualDubMod 1.5.10.3 | www.virtualdub-fr.org || (build 2550/release)
Библиотека кодирования : VirtualDubMod build 2550/release

Видео
Идентификатор : 0
Формат : MPEG-4 Visual
Профиль формата : Advanced Simple@L5
Параметр BVOP формата : 2
Параметр QPel формата : Нет
Параметр GMC формата : Без точки перехода
Параметр матрицы формата : Default (H.263)
Режим смешивания : Сжатый битовый поток
Идентификатор кодека : XVID
Идентификатор кодека/Подсказка : XviD
Продолжительность : 52 м.
Битрейт : 2099 Кбит/сек
Ширина : 720 пикселей
Высота : 400 пикселей
Соотношение сторон : 16:9
Частота кадров : 29,970 кадров/сек
Цветовое пространство : YUV
Субдискретизация насыщенности : 4:2:0
Битовая глубина : 8 бит
Тип развёртки : Прогрессивная
Метод сжатия : С потерями
Бит/(Пиксели*Кадры) : 0.243
Размер потока : 795 Мбайт (94%)
Библиотека кодирования : XviD 1.2.1 (UTC 2008-12-04)

Аудио
Идентификатор : 1
Формат : AC-3
Формат/Информация : Audio Coding 3
Расширение режима : CM (complete main)
Параметр Endianness формата : Big
Идентификатор кодека : 2000
Продолжительность : 52 м.
Вид битрейта : Постоянный
Битрейт : 128 Кбит/сек
Каналы : 2 канала
Расположение каналов : Front: L R
Частота : 48,0 КГц
Битовая глубина : 16 бит
Метод сжатия : С потерями
Размер потока : 48,5 Мбайт (6%)
Выравнивание : Разделение по промежуткам
Продолжительность промежутка : 33 мс. (1,00 видеокадр)
Время предзагрузки промежутка : 500 мс.



Релиз от:



   Похожие торренты   Торрент   Размер 
В этой теме нет новых непрочитанных сообщений. Восстание дронов / Rise of the Drones (2013) WEB-DLRip-AVC от -=HD-NET=-

0 | 1

597.93 МБ

В этой теме нет новых непрочитанных сообщений. Восстание бездельников / Slacker Uprising (2007) WEB-DLRip от R.G.RealMT | L1

8 | 5

1.6 ГБ

В этой теме нет новых непрочитанных сообщений. Трансформеры: Прайм / Transformers Prime [S01-S03] + Трансформеры: Прайм – Звериные Охотники: Восстание Предаконов (2010 - 2013) WEB-DLRip, HDRip от R.G.RealMT | КПК | L, D

226 | 26

5.51 ГБ

В этой теме нет новых непрочитанных сообщений. Трансформеры: Прайм / Transformers Prime [S01-S03] + Трансформеры: Прайм – Звериные Охотники: Восстание Предаконов (2010 - 2013) WEB-DLRip, HDRip от R.G.RealMT | L, D

230 | 83

27.96 ГБ

В этой теме нет новых непрочитанных сообщений. Штат Блу Маунтин: Восстание Тадлэнда / Blue Mountain State: The Rise of Thadland (2015) WEB-DLRip | L2

1165 | 55

1.37 ГБ

В этой теме нет новых непрочитанных сообщений. Штат Блу Маунтин: Восстание Тадлэнда / Blue Mountain State: The Rise of Thadland (2015) WEB-DLRip | L2

600 | 27

707.3 МБ

В этой теме нет новых непрочитанных сообщений. Штат Блу Маунтин: Восстание Тадлэнда / Blue Mountain State: The Rise of Thadland (2016) WEB-DLRip | L1

184 | 1

1.46 ГБ




Вы не можете начинать темы
Вы не можете отвечать на сообщения
Вы не можете редактировать свои сообщения
Вы не можете удалять свои сообщения
Вы не можете добавлять вложения

Перейти:  
Для Мосгорсуда, Роскомнадзора и рекламодателей: mosgorsud-torrent[собачка]yandex.ru
 Вход
ppkBB3cker v.2 © 2008-2014 @ PPK
[ Time : 0.043s | 16 Queries | GZIP : Off ]

Торрент трекер RUTOR.IN, Не можете зайти на rutor.org? Какой новый адрес рутор? Какое зеркало рутор? Не работает rutor.org и зеркала? Тогда наш торрент специально для вас. Rutor.in неофициальное зеркало rutor. В случае если у Вас заблокирован rutor или вдруг Вы не можете на него зайти, то Вы без труда сможете скачать бесплатно и без рекламы последние новинки кино, игр, сериалов и прочего у нас, на Rutor.in. Не нужно использовать прокси, чтобы зайти на рутор, достаточно воспользоваться нашим ресурсом. Все новые фильмы, игры, сериалы, книги и музыка за 2013 и 2014 годы через торрент бесплатно. Скачивайте фильмы в хорошем качестве, игры для пк, xbox, playstation без регистрации. У нас вы найдете новые Зарубежные сериалы и Русские сериалы 2013, 2014, 2015 годов. Оставайтесь с нами, качайте любимые фильмы, игры, сериалы, книги и музыку.
cron