img image001 image001 image001 image001 image001 image001 image001 image001 image001 image001 image001 image001 image001 image001 image001

Planets Sun Sun Sun
Статистика раздачи
Автор: PriZraK | Размер: 813.49 МБ | Добавлен: 15 фев 2014
Раздают: 34    Качают: 5
Скачать торрент
Скачать торрент
Описание торрента

СообщениеДобавлено: 15 фев 2014 

Год выпуска: 2013
Страна: Великобритания
Студия: BBC
Жанр: документальный
Продолжительность: 00:53:12
Перевод: Профессиональный (двухголосый закадровый) - студия "Марафон"
Субтитры: русские (на неозвученные места)

Режиссер: Кэйт Дарт / Kate Dart

Описание: Мы узнаём вдохновение, когда оно приходит. Тогда в голове словно вспыхивает свет, и мы чувствуем порыв: рождается мелодия, приходит решение задачи или яркий образ. Сегодня учёные решили ряд загадок и смогли выяснить, как случаются моменты озарения. Им удалось заглянуть в мозг и увидеть, как вспыхивает искра творчества. Это значит, что можно найти способы стимулировать творческие способности и делать людей более креативными.
В документальном фильме рассказывается о том, какие эксперименты проводятся, чтобы достичь этих целей. Доктор Рекс Янг из университета Нью-Мексико, профессор Джонатан Скулер из Калифорнийского университета в Санта-Барбаре и другие учёные рассказывают о своих открытиях и делятся планами по новым исследованиям
.
Доп. информация: В неозвученных местах присутствуют русские субтитры.



Качество: HDTVRip
Формат:AVI
Видео кодек: XviD
Аудио кодек: AC-3
Видео: 16:9, 2000 Кбит/сек, 720x400, 25,000 кадров/сек
Аудио: AC-3, 2 канала, 128 Кбит/сек, 48,0 КГц

Общее
Полное имя : D:BBC.Horizon.2013.The.Creative.Brain.How.Insight.Works.avi
Формат : AVI
Формат/Информация : Audio Video Interleave
Размер файла : 813 Мбайт
Продолжительность : 53 м.
Общий поток : 2138 Кбит/сек
Программа кодирования : VirtualDubMod 1.5.10.3 | www.virtualdub-fr.org || (build 2550/release)
Библиотека кодирования : VirtualDubMod build 2550/release

Видео
Идентификатор : 0
Формат : MPEG-4 Visual
Профиль формата : Advanced Simple@L5
Параметр BVOP формата : 2
Параметр QPel формата : Нет
Параметр GMC формата : Без точки перехода
Параметр матрицы формата : Default (H.263)
Режим смешивания : Сжатый битовый поток
Идентификатор кодека : XVID
Идентификатор кодека/Подсказка : XviD
Продолжительность : 53 м.
Битрейт : 2000 Кбит/сек
Ширина : 720 пикселей
Высота : 400 пикселей
Соотношение сторон : 16:9
Частота кадров : 25,000 кадров/сек
Цветовое пространство : YUV
Субдискретизация насыщенности : 4:2:0
Битовая глубина : 8 бит
Тип развёртки : Прогрессивная
Метод сжатия : С потерями
Бит/(Пиксели*Кадры) : 0.278
Размер потока : 761 Мбайт (94%)
Библиотека кодирования : XviD 1.2.1 (UTC 2008-12-04)

Аудио
Идентификатор : 1
Формат : AC-3
Формат/Информация : Audio Coding 3
Расширение режима : CM (complete main)
Параметр Endianness формата : Big
Идентификатор кодека : 2000
Продолжительность : 53 м.
Вид битрейта : Постоянный
Битрейт : 128 Кбит/сек
Каналы : 2 канала
Расположение каналов : Front: L R
Частота : 48,0 КГц
Битовая глубина : 16 бит
Метод сжатия : С потерями
Размер потока : 48,7 Мбайт (6%)
Выравнивание : Разделение по промежуткам
Продолжительность промежутка : 40 мс. (1,00 видеокадр)
Время предзагрузки промежутка : 500 мс.


Релиз от:



   Похожие торренты   Торрент   Размер 
В этой теме нет новых непрочитанных сообщений. Сквозь горизонт / Горизонт Событий / Event Horizon (1997) BDRip от HQCLUB

252 | 14

1.45 ГБ

В этой теме нет новых непрочитанных сообщений. Сквозь горизонт (Горизонт событий) / Event Horizon (1997) BDRip 1080p от MediaClub | P, P2, A

118 | 23

12.13 ГБ

В этой теме нет новых непрочитанных сообщений. BBC. Горизонт. Завтра нашего мира / BBC: Horizon. Tomorrow's World (2013) HDTVRip-AVC от -=HD-NET=-

20 | 2

706.83 МБ

В этой теме нет новых непрочитанных сообщений. BBC: Вся правда о характере / BBC Horizon - The Truth About Personality (2013) HDTVRip от R.G.RealMT | L1

273 | 6

884.42 МБ

В этой теме нет новых непрочитанных сообщений. Логин Горизонт / Log Horizon [01-06 из 25] (2013) HDTV 720p | L

56 | 41

1.89 ГБ

В этой теме нет новых непрочитанных сообщений. BBC: Завтра нашего мира / BBC: Tomorrow's World: A Horizon Special (2013) HDTVRip от R.G.RealMT | P2

145 | 3

780.61 МБ

В этой теме нет новых непрочитанных сообщений. Смертельно опасные ошибки / BBC Horizon: How to Avoid Mistakes in Surgery (2013) HDTVRip от R.G.RealMT | P2

55 | 2

715.56 МБ




Вы не можете начинать темы
Вы не можете отвечать на сообщения
Вы не можете редактировать свои сообщения
Вы не можете удалять свои сообщения
Вы не можете добавлять вложения

Перейти:  
Для Мосгорсуда, Роскомнадзора и рекламодателей: mosgorsud-torrent[собачка]yandex.ru
 Вход
ppkBB3cker v.2 © 2008-2014 @ PPK
[ Time : 0.029s | 17 Queries | GZIP : Off ]

Торрент трекер RUTOR.IN, Не можете зайти на rutor.org? Какой новый адрес рутор? Какое зеркало рутор? Не работает rutor.org и зеркала? Тогда наш торрент специально для вас. Rutor.in неофициальное зеркало rutor. В случае если у Вас заблокирован rutor или вдруг Вы не можете на него зайти, то Вы без труда сможете скачать бесплатно и без рекламы последние новинки кино, игр, сериалов и прочего у нас, на Rutor.in. Не нужно использовать прокси, чтобы зайти на рутор, достаточно воспользоваться нашим ресурсом. Все новые фильмы, игры, сериалы, книги и музыка за 2013 и 2014 годы через торрент бесплатно. Скачивайте фильмы в хорошем качестве, игры для пк, xbox, playstation без регистрации. У нас вы найдете новые Зарубежные сериалы и Русские сериалы 2013, 2014, 2015 годов. Оставайтесь с нами, качайте любимые фильмы, игры, сериалы, книги и музыку.