img image001 image001 image001 image001 image001 image001 image001 image001 image001 image001 image001 image001 image001 image001 image001

Planets Sun Sun Sun
Статистика раздачи
Автор: PriZraK | Размер: 2.18 ГБ | Добавлен: 15 фев 2014
Раздают: 159    Качают: 16
Скачать торрент
Скачать торрент
Описание торрента

СообщениеДобавлено: 15 фев 2014 

Информация о фильме
Название: Наша Вселенная
Оригинальное название: Our Universe
Год выпуска: 2013
Жанр: Документальный, видовой
Выпущено: США, Universal Pictures
Режиссер: Калле Макс Хофманн

Перевод: Дублированный


Сюжет фильма

Звездное небо было объектом внимания людей с доисторических времен. И неудивительно, ведь именно в глубинах вселенной зародилась жизнь. В наши дни, благодаря современным технологиям, самые невероятные и удивительные секреты вселенной стали доступны для понимания. Космические корабли и роботизированные зонды исследуют, сканируют и фотографируют миллиарды отдаленных планет. С помощью уникальной передовой технологии "Наша вселенная 3D" даст вам возможность насладиться сногсшибательными видами и разгадать необыкновенные звездные феномены, не выходя из дома.





Файл
Качество: BDRip 720p (исходник Blu-ray)
Видео: 1280x720, 4 104 Кбит/сек, 23,976 кадр/сек, AVC, x264, High@L4.1, 0.186 Бит/[Пиксели*Кадры], 2pass
Аудио 1: DTS, 2 ch, 448 Кбит/с - Дублированный
Аудио 2: DTS, 2 ch, 1510 Кбит/с - Английский

Чаптеры: есть
Субтитры: Русские
Продолжительность: 00:51:33
Автор Рипа:









Format : Matroska
Format version : Version 2
File size : 2.18 GiB
Duration : 51mn 33s
Overall bit rate : 6 065 Kbps
Movie name : Nasha Vselennaja.(2013).BDRip.720p.[denis100]
Encoded date : UTC 2014-01-06 08:33:11
Writing application : mkvmerge v5.8.0 ('No Sleep / Pillow') built on Sep 2 2012 15:37:04
Writing library : libebml v1.2.3 + libmatroska v1.3.0

Video
ID : 1
Format : AVC
Format/Info : Advanced Video Codec
Format profile : High@L4.1
Format settings, CABAC : Yes
Format settings, ReFrames : 9 frames
Codec ID : V_MPEG4/ISO/AVC
Duration : 51mn 33s
Bit rate : 4 104 Kbps
Width : 1 280 pixels
Height : 720 pixels
Display aspect ratio : 16:9
Frame rate mode : Constant
Frame rate : 23.976 fps
Color space : YUV
Chroma subsampling : 4:2:0
Bit depth : 8 bits
Scan type : Progressive
Bits/(Pixel*Frame) : 0.186
Stream size : 1.44 GiB (66%)
Title : Nasha Vselennaja.(2013).BDRip.720p от denis100
Writing library : x264 core 140 r2377 1ca7bb9
Encoding settings : cabac=1 / ref=9 / deblock=1:-3:-3 / analyse=0x3:0x133 / me=umh / subme=10 / psy=1 / psy_rd=1.00:0.10 / mixed_ref=1 / me_range=32 / chroma_me=1 / trellis=2 / 8x8dct=1 / cqm=0 / deadzone=21,11 / fast_pskip=0 / chroma_qp_offset=-3 / threads=6 / lookahead_threads=1 / sliced_threads=0 / nr=0 / decimate=0 / interlaced=0 / bluray_compat=0 / constrained_intra=0 / bframes=5 / b_pyramid=2 / b_adapt=2 / b_bias=0 / direct=3 / weightb=1 / open_gop=0 / weightp=2 / keyint=240 / keyint_min=23 / scenecut=40 / intra_refresh=0 / rc=2pass / mbtree=0 / bitrate=4104 / ratetol=1.0 / qcomp=0.60 / qpmin=0 / qpmax=69 / qpstep=4 / cplxblur=20.0 / qblur=0.5 / ip_ratio=1.40 / pb_ratio=1.30 / aq=1:0.90
Language : English
Default : Yes
Forced : No

Audio #1
ID : 2
Format : DTS
Format/Info : Digital Theater Systems
Mode : 16
Format settings, Endianness : Big
Codec ID : A_DTS
Duration : 51mn 33s
Bit rate mode : Constant
Bit rate : 447 Kbps
Channel count : 2 channels
Channel positions : Front: L R
Sampling rate : 48.0 KHz
Bit depth : 24 bits
Compression mode : Lossy
Stream size : 165 MiB (7%)
Title : Дублированный
Language : Russian
Default : Yes
Forced : No

Audio #2
ID : 3
Format : DTS
Format/Info : Digital Theater Systems
Mode : 16
Format settings, Endianness : Big
Codec ID : A_DTS
Duration : 51mn 33s
Bit rate mode : Constant
Bit rate : 1 509 Kbps
Channel count : 2 channels
Channel positions : Front: L R
Sampling rate : 48.0 KHz
Bit depth : 24 bits
Compression mode : Lossy
Stream size : 556 MiB (25%)
Title : English
Language : English
Default : No
Forced : No

Text
ID : 4
Format : UTF-8
Codec ID : S_TEXT/UTF8
Codec ID/Info : UTF-8 Plain Text
Title : Русские
Language : Russian
Default : No
Forced : No

Menu
00:00:00.000 : en:Chapter 01
00:07:03.214 : en:Chapter 02
00:12:49.268 : en:Chapter 03
00:19:15.612 : en:Chapter 04
00:25:54.761 : en:Chapter 05
00:31:54.287 : en:Chapter 06
00:36:05.496 : en:Chapter 07
00:42:25.459 : en:Chapter 08
00:51:33.048 : en:Chapter 09


x264 [info]: frame I:1175 Avg QP:15.38 size: 84724
x264 [info]: frame P:38397 Avg QP:18.30 size: 38755
x264 [info]: frame B:129811 Avg QP:19.74 size: 15191



   Похожие торренты   Торрент   Размер 
В этой теме нет новых непрочитанных сообщений. Наша Вселенная / Our Universe (2013) BDRip 1080p от denis 100

172 | 22

4.37 ГБ

В этой теме нет новых непрочитанных сообщений. Вселенная / The Universe [s01] (2007) BDRip 720p

6 | 4

21.44 ГБ

В этой теме нет новых непрочитанных сообщений. Вселенная / The Universe [S03] (2008) BDRip 720p от GYN | А

3 | 2

33.49 ГБ

В этой теме нет новых непрочитанных сообщений. Вселенная / The Universe [S01] (2007) BDRip 720p от GYN

1 | 4

41.74 ГБ

В этой теме нет новых непрочитанных сообщений. Наша Вселенная / Our Universe (2013) BDRip от -=HD-NET=-

401 | 13

551.24 МБ

В этой теме нет новых непрочитанных сообщений. Наша Вселенная / Our Universe (2013) BDRip-AVC | D

190 | 26

747.04 МБ

В этой теме нет новых непрочитанных сообщений. Вселенная / The Universe [06х01] (2011) BDRip 720p | P2

1 | 1

2.78 ГБ




Вы не можете начинать темы
Вы не можете отвечать на сообщения
Вы не можете редактировать свои сообщения
Вы не можете удалять свои сообщения
Вы не можете добавлять вложения

Перейти:  
Для Мосгорсуда, Роскомнадзора и рекламодателей: mosgorsud-torrent[собачка]yandex.ru
 Вход
ppkBB3cker v.2 © 2008-2014 @ PPK
[ Time : 0.654s | 16 Queries | GZIP : On ]

Торрент трекер RUTOR.IN, Не можете зайти на rutor.org? Какой новый адрес рутор? Какое зеркало рутор? Не работает rutor.org и зеркала? Тогда наш торрент специально для вас. Rutor.in неофициальное зеркало rutor. В случае если у Вас заблокирован rutor или вдруг Вы не можете на него зайти, то Вы без труда сможете скачать бесплатно и без рекламы последние новинки кино, игр, сериалов и прочего у нас, на Rutor.in. Не нужно использовать прокси, чтобы зайти на рутор, достаточно воспользоваться нашим ресурсом. Все новые фильмы, игры, сериалы, книги и музыка за 2013 и 2014 годы через торрент бесплатно. Скачивайте фильмы в хорошем качестве, игры для пк, xbox, playstation без регистрации. У нас вы найдете новые Зарубежные сериалы и Русские сериалы 2013, 2014, 2015 годов. Оставайтесь с нами, качайте любимые фильмы, игры, сериалы, книги и музыку.