img image001 image001 image001 image001 image001 image001 image001 image001 image001 image001 image001 image001 image001 image001 image001

Planets Sun Sun Sun
Статистика раздачи
Автор: PriZraK | Размер: 2.18 ГБ | Добавлен: 15 фев 2014
Раздают: 19    Качают: 10
Скачать торрент
Скачать торрент
Описание торрента

СообщениеДобавлено: 15 фев 2014 

Название: Дикая Южная Африка: Сафари
Оригинальное название: Wildlife South Africa: Safari
Год выпуска: 2012
Жанр: Документальный, научно познавательный, живая природа, экология
Выпущено: Германия, KSM
Режиссер: Норберт Вандер

О фильме:
Очень популярным в мире видом туризма является поездка в Африку на сафари. Он позволяет сохранить обитателей дикой природы и заповедников в их родной среде обитания. В этом фильме мы увидим не только львов, леопардов, носорогов, слонов и буйволов, но также бегемотов, антилоп и редких диких собак. А также по общаемся с работником заповедника. В фильме показана жизнь животных Южной Африки.

Файл
Качество: BDRip 720p (исходник Blu-ray)
Видео: 1280x720, 5 040 Кбит/сек, 23.976 кадр/сек, AVC, x264, High@L4.1, 0.228 Бит/[Пиксели*Кадры]
Аудио 1: AC3 5.1 48 kHz 640 kbps - Профессиональный одноголосый
Аудио 2: AC3 5.1 48 kHz 640 kbps - English
Чаптеры: есть
Продолжительность: 00:49:27
Автор Рипа:





Format : Matroska
Format version : Version 2
File size : 2.18 GiB
Duration : 49mn 27s
Overall bit rate : 6 317 Kbps
Movie name : Dikaja.Juzhnaja.Afrika.Part.1.Safarii.(2012).BDRip.720p.[denis100]
Encoded date : UTC 2014-01-13 09:47:27
Writing application : mkvmerge v5.8.0 ('No Sleep / Pillow') built on Sep 2 2012 15:37:04
Writing library : libebml v1.2.3 + libmatroska v1.3.0

Video
ID : 1
Format : AVC
Format/Info : Advanced Video Codec
Format profile : High@L4.1
Format settings, CABAC : Yes
Format settings, ReFrames : 9 frames
Codec ID : V_MPEG4/ISO/AVC
Duration : 49mn 27s
Bit rate : 5 040 Kbps
Width : 1 280 pixels
Height : 720 pixels
Display aspect ratio : 16:9
Frame rate mode : Constant
Frame rate : 23.976 fps
Color space : YUV
Chroma subsampling : 4:2:0
Bit depth : 8 bits
Scan type : Progressive
Bits/(Pixel*Frame) : 0.228
Stream size : 1.70 GiB (78%)
Title : Dikaja.Juzhnaja.Afrika.Part.1.Safarii.(2012).BDRip.720p.[denis100]
Writing library : x264 core 140 r2377 1ca7bb9
Encoding settings : cabac=1 / ref=9 / deblock=1:-3:-3 / analyse=0x3:0x133 / me=umh / subme=10 / psy=1 / psy_rd=1.00:0.10 / mixed_ref=1 / me_range=32 / chroma_me=1 / trellis=2 / 8x8dct=1 / cqm=0 / deadzone=21,11 / fast_pskip=0 / chroma_qp_offset=-3 / threads=6 / lookahead_threads=1 / sliced_threads=0 / nr=0 / decimate=0 / interlaced=0 / bluray_compat=0 / constrained_intra=0 / bframes=5 / b_pyramid=2 / b_adapt=2 / b_bias=0 / direct=3 / weightb=1 / open_gop=0 / weightp=2 / keyint=240 / keyint_min=23 / scenecut=40 / intra_refresh=0 / rc=2pass / mbtree=0 / bitrate=5040 / ratetol=1.0 / qcomp=0.60 / qpmin=0 / qpmax=69 / qpstep=4 / cplxblur=20.0 / qblur=0.5 / ip_ratio=1.40 / pb_ratio=1.30 / aq=1:0.90
Language : English
Default : Yes
Forced : No

Audio #1
ID : 2
Format : AC-3
Format/Info : Audio Coding 3
Mode extension : CM (complete main)
Format settings, Endianness : Big
Codec ID : A_AC3
Duration : 49mn 27s
Bit rate mode : Constant
Bit rate : 640 Kbps
Channel count : 6 channels
Channel positions : Front: L C R, Side: L R, LFE
Sampling rate : 48.0 KHz
Bit depth : 16 bits
Compression mode : Lossy
Stream size : 226 MiB (10%)
Title : Профессиональный одноголосый
Language : Russian
Default : Yes
Forced : No

Audio #2
ID : 3
Format : AC-3
Format/Info : Audio Coding 3
Mode extension : CM (complete main)
Format settings, Endianness : Big
Codec ID : A_AC3
Duration : 49mn 27s
Bit rate mode : Constant
Bit rate : 640 Kbps
Channel count : 6 channels
Channel positions : Front: L C R, Side: L R, LFE
Sampling rate : 48.0 KHz
Bit depth : 16 bits
Compression mode : Lossy
Stream size : 226 MiB (10%)
Title : English
Language : English
Default : No
Forced : No

Text
ID : 4
Format : UTF-8
Codec ID : S_TEXT/UTF8
Codec ID/Info : UTF-8 Plain Text
Title : русские
Language : Russian
Default : No
Forced : No

Menu
00:00:00.000 : :Chapter 01
00:05:54.896 : :Chapter 02
00:12:00.845 : :Chapter 03
00:19:19.074 : :Chapter 04
00:25:58.807 : :Chapter 05
00:31:44.193 : :Chapter 06
00:37:42.927 : :Chapter 07
00:43:40.743 : :Chapter 08
00:49:27.297 : :Chapter 09



   Похожие торренты   Торрент   Размер 
В этой теме нет новых непрочитанных сообщений. Дикая Южная Африка: Сафари / Wildlife South Africa: Safari (2012) BDRip 720p by msltel

44 | 12

1.71 ГБ

В этой теме нет новых непрочитанных сообщений. Дикая Южная Африка: Сафари / Wildlife South Africa: Safari (2012) BDRip от HitWay | P1

29 | 3

724.62 МБ

В этой теме нет новых непрочитанных сообщений. Дикая Южная Африка: Сафари / Wildlife South Africa: Safari (2012) BDRip-AVC by msltel

28 | 8

1.21 ГБ

В этой теме нет новых непрочитанных сообщений. Дикая Южная Африка: Сафари / Wildlife South Africa: Safari (2012) BDRip 1080p by msltel

70 | 15

4.27 ГБ

В этой теме нет новых непрочитанных сообщений. Дикая Южная Африка: Большая пятерка / Wildlife South Africa: Big Fivec (2012) BDRip 720p от denis 100 | P1

9 | 4

2.18 ГБ

В этой теме нет новых непрочитанных сообщений. Дикая Южная Африка: По Следам Белых Акул / Wildlife South Africa: Westkap (2012) BDRip 720p от denis 100 | P1

54 | 3

2.18 ГБ

В этой теме нет новых непрочитанных сообщений. Дикая Южная Африка: Сафари / Wildlife South Africa: Safar (2012) BDRemux 1080p от ExKinoRay | P1

3 | 32

9.69 ГБ




Вы не можете начинать темы
Вы не можете отвечать на сообщения
Вы не можете редактировать свои сообщения
Вы не можете удалять свои сообщения
Вы не можете добавлять вложения

Перейти:  
Для Мосгорсуда, Роскомнадзора и рекламодателей: mosgorsud-torrent[собачка]yandex.ru
 Вход
ppkBB3cker v.2 © 2008-2014 @ PPK
[ Time : 0.024s | 15 Queries | GZIP : Off ]

Торрент трекер RUTOR.IN, Не можете зайти на rutor.org? Какой новый адрес рутор? Какое зеркало рутор? Не работает rutor.org и зеркала? Тогда наш торрент специально для вас. Rutor.in неофициальное зеркало rutor. В случае если у Вас заблокирован rutor или вдруг Вы не можете на него зайти, то Вы без труда сможете скачать бесплатно и без рекламы последние новинки кино, игр, сериалов и прочего у нас, на Rutor.in. Не нужно использовать прокси, чтобы зайти на рутор, достаточно воспользоваться нашим ресурсом. Все новые фильмы, игры, сериалы, книги и музыка за 2013 и 2014 годы через торрент бесплатно. Скачивайте фильмы в хорошем качестве, игры для пк, xbox, playstation без регистрации. У нас вы найдете новые Зарубежные сериалы и Русские сериалы 2013, 2014, 2015 годов. Оставайтесь с нами, качайте любимые фильмы, игры, сериалы, книги и музыку.