img image001 image001 image001 image001 image001 image001 image001 image001 image001 image001 image001 image001 image001 image001 image001

Planets Sun Sun Sun
Статистика раздачи
Автор: PriZraK | Размер: 2.18 ГБ | Добавлен: 15 фев 2014
Раздают: 54    Качают: 3
Скачать торрент
Скачать торрент
Описание торрента

СообщениеДобавлено: 15 фев 2014 

Название: Дикая Южная Африка: По Следам Белых Акул
Оригинальное название: Wildlife South Africa: Westkap
Год выпуска: 2012
Жанр: Документальный, видовой, научно-познавательный, исследования, природа, флора, фауна
Выпущено: Германия, KSM
Режиссер: Норберт Вандер

О фильме:
Протяжённость Южно-Африканского побережья 2786 км. С запада оно омывается Атлантическим океаном, с востока - Индийским. В середине находится мыс Доброй Надежды - кладбище кораблей. В этом "повинны" два течения - со стороны Атлантики холодное Benguela, а с Индийского океана - тёплое Agulahasstrom. Эти условия создали неповторимую флору и фауну. В этом фильме показана природа Западного мыса (недалеко от мыса Доброй Надежды). Мы увидим китов, морских львов, пингвинов, подразним и заглянем в рот белой акулы. А также мы встретимся с большой белой акулой в районе острова Дайер, известном под названием Акулья аллея.

Файл
Качество: BDRip 720p (исходник Blu-ray)
Видео: 1280x720, 5 319 Кбит/сек, 23.976 кадр/сек, AVC, x264, High@L4.1, 0.242 Бит/[Пиксели*Кадры]
Аудио 1: AC3 5.1 48 kHz 640 kbps - Профессиональный одноголосый
Аудио 2: AC3 5.1 48 kHz 640 kbps - English
Чаптеры: есть
Продолжительность: 00:47:18
Автор Рипа:





Format : Matroska
Format version : Version 2
File size : 2.18 GiB
Duration : 47mn 18s
Overall bit rate : 6 592 Kbps
Movie name : Dikaja.Juzhnaja.Afrika.Part.3.Po.Sledam.Belyh.Akul.(2012).BDRip.720p.[denis100]
Encoded date : UTC 2014-01-13 09:52:41
Writing application : mkvmerge v5.8.0 ('No Sleep / Pillow') built on Sep 2 2012 15:37:04
Writing library : libebml v1.2.3 + libmatroska v1.3.0

Video
ID : 1
Format : AVC
Format/Info : Advanced Video Codec
Format profile : High@L4.1
Format settings, CABAC : Yes
Format settings, ReFrames : 9 frames
Codec ID : V_MPEG4/ISO/AVC
Duration : 47mn 18s
Bit rate : 5 319 Kbps
Width : 1 280 pixels
Height : 720 pixels
Display aspect ratio : 16:9
Frame rate mode : Constant
Frame rate : 23.976 fps
Color space : YUV
Chroma subsampling : 4:2:0
Bit depth : 8 bits
Scan type : Progressive
Bits/(Pixel*Frame) : 0.241
Stream size : 1.71 GiB (79%)
Title : Dikaja.Juzhnaja.Afrika.Part.3.Po.Sledam.Belyh.Akul.(2012).BDRip.720p.[denis100]
Writing library : x264 core 140 r2377 1ca7bb9
Encoding settings : cabac=1 / ref=9 / deblock=1:-3:-3 / analyse=0x3:0x133 / me=umh / subme=10 / psy=1 / psy_rd=1.00:0.10 / mixed_ref=1 / me_range=32 / chroma_me=1 / trellis=2 / 8x8dct=1 / cqm=0 / deadzone=21,11 / fast_pskip=0 / chroma_qp_offset=-3 / threads=6 / lookahead_threads=1 / sliced_threads=0 / nr=0 / decimate=0 / interlaced=0 / bluray_compat=0 / constrained_intra=0 / bframes=5 / b_pyramid=2 / b_adapt=2 / b_bias=0 / direct=3 / weightb=1 / open_gop=0 / weightp=2 / keyint=240 / keyint_min=23 / scenecut=40 / intra_refresh=0 / rc=2pass / mbtree=0 / bitrate=5319 / ratetol=1.0 / qcomp=0.60 / qpmin=0 / qpmax=69 / qpstep=4 / cplxblur=20.0 / qblur=0.5 / ip_ratio=1.40 / pb_ratio=1.30 / aq=1:0.90
Language : English
Default : Yes
Forced : No

Audio #1
ID : 2
Format : AC-3
Format/Info : Audio Coding 3
Mode extension : CM (complete main)
Format settings, Endianness : Big
Codec ID : A_AC3
Duration : 47mn 18s
Bit rate mode : Constant
Bit rate : 640 Kbps
Channel count : 6 channels
Channel positions : Front: L C R, Side: L R, LFE
Sampling rate : 48.0 KHz
Bit depth : 16 bits
Compression mode : Lossy
Stream size : 217 MiB (10%)
Title : Профессиональный одноголосый
Language : Russian
Default : Yes
Forced : No

Audio #2
ID : 3
Format : AC-3
Format/Info : Audio Coding 3
Mode extension : CM (complete main)
Format settings, Endianness : Big
Codec ID : A_AC3
Duration : 47mn 18s
Bit rate mode : Constant
Bit rate : 640 Kbps
Channel count : 6 channels
Channel positions : Front: L C R, Side: L R, LFE
Sampling rate : 48.0 KHz
Bit depth : 16 bits
Compression mode : Lossy
Stream size : 217 MiB (10%)
Title : english
Language : English
Default : No
Forced : No

Text
ID : 4
Format : UTF-8
Codec ID : S_TEXT/UTF8
Codec ID/Info : UTF-8 Plain Text
Title : русские
Language : Russian
Default : No
Forced : No

Menu
00:00:00.000 : :Chapter 01
00:04:51.124 : :Chapter 02
00:11:40.991 : :Chapter 03
00:18:46.083 : :Chapter 04
00:23:38.458 : :Chapter 05
00:30:00.507 : :Chapter 06
00:34:47.960 : :Chapter 07
00:41:22.813 : :Chapter 08
00:47:18.085 : :Chapter 09




   Похожие торренты   Торрент   Размер 
В этой теме нет новых непрочитанных сообщений. Дикая Южная Африка: По Следам Белых Акул / Wildlife South Africa: Westkap (2012) BDRip от HitWay | P1

45 | 2

701.68 МБ

В этой теме нет новых непрочитанных сообщений. Дикая Южная Африка: По Следам Белых Акул / Wildlife South Africa: Westkap (2012) BDRemux 1080p от ExKinoRay | P1

8 | 3

9.61 ГБ

В этой теме нет новых непрочитанных сообщений. Дикая Южная Африка. По Следам Белых Акул / Wildlife South Africa: Western Cape (2012) BDRip-AVC от -=HD-NET=-

2 | 2

667.96 МБ

В этой теме нет новых непрочитанных сообщений. Дикая Южная Африка: Сафари / Wildlife South Africa: Safari (2012) BDRip 720p от denis 100 | P1

19 | 10

2.18 ГБ

В этой теме нет новых непрочитанных сообщений. Дикая Южная Африка: Большая пятерка / Wildlife South Africa: Big Fivec (2012) BDRip 720p от denis 100 | P1

9 | 4

2.18 ГБ

В этой теме нет новых непрочитанных сообщений. Дикая Южная Африка: Сафари / Wildlife South Africa: Safari (2012) BDRip 720p by msltel

44 | 12

1.71 ГБ

В этой теме нет новых непрочитанных сообщений. Дикая Южная Африка: Сафари / Wildlife South Africa: Safari (2012) BDRip-AVC by msltel

28 | 8

1.21 ГБ




Вы не можете начинать темы
Вы не можете отвечать на сообщения
Вы не можете редактировать свои сообщения
Вы не можете удалять свои сообщения
Вы не можете добавлять вложения

Перейти:  
Для Мосгорсуда, Роскомнадзора и рекламодателей: mosgorsud-torrent[собачка]yandex.ru
 Вход
ppkBB3cker v.2 © 2008-2014 @ PPK
[ Time : 0.030s | 15 Queries | GZIP : Off ]

Торрент трекер RUTOR.IN, Не можете зайти на rutor.org? Какой новый адрес рутор? Какое зеркало рутор? Не работает rutor.org и зеркала? Тогда наш торрент специально для вас. Rutor.in неофициальное зеркало rutor. В случае если у Вас заблокирован rutor или вдруг Вы не можете на него зайти, то Вы без труда сможете скачать бесплатно и без рекламы последние новинки кино, игр, сериалов и прочего у нас, на Rutor.in. Не нужно использовать прокси, чтобы зайти на рутор, достаточно воспользоваться нашим ресурсом. Все новые фильмы, игры, сериалы, книги и музыка за 2013 и 2014 годы через торрент бесплатно. Скачивайте фильмы в хорошем качестве, игры для пк, xbox, playstation без регистрации. У нас вы найдете новые Зарубежные сериалы и Русские сериалы 2013, 2014, 2015 годов. Оставайтесь с нами, качайте любимые фильмы, игры, сериалы, книги и музыку.