img image001 image001 image001 image001 image001 image001 image001 image001 image001 image001 image001 image001 image001 image001 image001

Planets Sun Sun Sun
Статистика раздачи
Автор: PriZraK | Размер: 854.67 МБ | Добавлен: 15 фев 2014
Раздают: 4    Качают: 3
Скачать торрент
Скачать торрент
Описание торрента

СообщениеДобавлено: 15 фев 2014 

Год выпуска: 2011
Страна: США
Студия: Public Broadcasting Service
Жанр: Документальный, научно-познавательный, природа
Продолжительность: 00:52:43
Перевод: Профессиональный одноголосый закадровый
Доп. инфо о переводе: Д. Есарев
Русские субтитры: нет

Режиссер: Марк Флэтчер / Mark Fletcher

В ролях: Chris Morgan

Описание: Животные строят дома по тем же самым причинам, что и люди, но они начали это делать гораздо гораздо раньше человека... Дома животных могут быть очень простыми, но иногда ни похожи на настоящее архитектурное чудо. Все эти сооружения - вне зависимости от того, нора это, гнездо или еще что-либо - это места, где разворачиваются драмы и где порой происходят очень неординарные события... В этом фильме мы увидим признанных мастеров по части постройки домов - термитов и трудолюбивых бобров, а также подлинных гениев маскировки - птиц-шалашников, умело маскирующих вход в свое жилище яркими цветами, отвлекающими на него внимание... В этом фильме мы попробуем взглянуть на жизнь разнообразных обитателей дикой природы в их "домашних условиях"...



Качество: HDRip
Формат:AVI
Видео кодек: XviD
Аудио кодек: AC-3
Видео: 16:9, 1999 Кбит/сек, 720x400, 29,970 кадров/сек
Аудио: AC-3, 6 каналов, 256 Кбит/сек, 48,0 КГц
Общее
Полное имя : D:PBS.Nature.The.Animal.House.2011.avi
Формат : AVI
Формат/Информация : Audio Video Interleave
Размер файла : 855 Мбайт
Продолжительность : 52 м.
Общий поток : 2267 Кбит/сек
Программа кодирования : VirtualDubMod 1.5.10.3 | www.virtualdub-fr.org || (build 2550/release)
Библиотека кодирования : VirtualDubMod build 2550/release

Видео
Идентификатор : 0
Формат : MPEG-4 Visual
Профиль формата : Advanced Simple@L5
Параметр BVOP формата : 2
Параметр QPel формата : Нет
Параметр GMC формата : Без точки перехода
Параметр матрицы формата : Default (H.263)
Режим смешивания : Сжатый битовый поток
Идентификатор кодека : XVID
Идентификатор кодека/Подсказка : XviD
Продолжительность : 52 м.
Битрейт : 1999 Кбит/сек
Ширина : 720 пикселей
Высота : 400 пикселей
Соотношение сторон : 16:9
Частота кадров : 29,970 кадров/сек
Цветовое пространство : YUV
Субдискретизация насыщенности : 4:2:0
Битовая глубина : 8 бит
Тип развёртки : Прогрессивная
Метод сжатия : С потерями
Бит/(Пиксели*Кадры) : 0.232
Размер потока : 754 Мбайт (88%)
Библиотека кодирования : XviD 1.2.1 (UTC 2008-12-04)

Аудио
Идентификатор : 1
Формат : AC-3
Формат/Информация : Audio Coding 3
Расширение режима : CM (complete main)
Параметр Endianness формата : Big
Идентификатор кодека : 2000
Продолжительность : 52 м.
Вид битрейта : Постоянный
Битрейт : 256 Кбит/сек
Каналы : 6 каналов
Расположение каналов : Front: L C R, Side: L R, LFE
Частота : 48,0 КГц
Битовая глубина : 16 бит
Метод сжатия : С потерями
Размер потока : 96,5 Мбайт (11%)
Выравнивание : Разделение по промежуткам
Продолжительность промежутка : 33 мс. (1,00 видеокадр)
Время предзагрузки промежутка : 500 мс.


Релиз от:



   Похожие торренты   Торрент   Размер 
В этой теме нет новых непрочитанных сообщений. PBS: Природа - Дом животных / PBS: Nature - The Animal House (2011) BDRip-AVC от F-Torrents

3 | 3

939.78 МБ

В этой теме нет новых непрочитанных сообщений. PBS: Природа – Гималаи / PBS: Nature – The Himalayas (2011) HDRip от R.G.RealMT | P1

7 | 2

872.5 МБ

В этой теме нет новых непрочитанных сообщений. Зверинец / Дом животных / Animal House (1978) HDRip

0 | 2

1.61 ГБ

В этой теме нет новых непрочитанных сообщений. Армагеддон животных / Apokalypse der Urzeit / Animal Armageddon [01-08 из 8] (2009) BDRip 720p от R.G.RealMT | D

1 | 9

17.42 ГБ

В этой теме нет новых непрочитанных сообщений. Дикая природа Скандинавии / Wildes Skandinavien [01-07 из 07] (2011) HDRip от R.G.RealMT

3 | 38

4.91 ГБ

В этой теме нет новых непрочитанных сообщений. Nat Geo Wild: Анатомия крупнейших животных. Большие белые акулы / Animal Autopsy. Inside Nature's Giants. The Great White Shark (2010) HDTVRip

0 | 2

643.93 МБ

В этой теме нет новых непрочитанных сообщений. Дикая природа Анд / Wild Faces of the Andes / Im Schatten der Anden (2011) HDRip от R.G.RealMT | P1

4 | 2

847.04 МБ




Вы не можете начинать темы
Вы не можете отвечать на сообщения
Вы не можете редактировать свои сообщения
Вы не можете удалять свои сообщения
Вы не можете добавлять вложения

Перейти:  
Для Мосгорсуда, Роскомнадзора и рекламодателей: mosgorsud-torrent[собачка]yandex.ru
 Вход
ppkBB3cker v.2 © 2008-2014 @ PPK
[ Time : 0.064s | 15 Queries | GZIP : Off ]

Торрент трекер RUTOR.IN, Не можете зайти на rutor.org? Какой новый адрес рутор? Какое зеркало рутор? Не работает rutor.org и зеркала? Тогда наш торрент специально для вас. Rutor.in неофициальное зеркало rutor. В случае если у Вас заблокирован rutor или вдруг Вы не можете на него зайти, то Вы без труда сможете скачать бесплатно и без рекламы последние новинки кино, игр, сериалов и прочего у нас, на Rutor.in. Не нужно использовать прокси, чтобы зайти на рутор, достаточно воспользоваться нашим ресурсом. Все новые фильмы, игры, сериалы, книги и музыка за 2013 и 2014 годы через торрент бесплатно. Скачивайте фильмы в хорошем качестве, игры для пк, xbox, playstation без регистрации. У нас вы найдете новые Зарубежные сериалы и Русские сериалы 2013, 2014, 2015 годов. Оставайтесь с нами, качайте любимые фильмы, игры, сериалы, книги и музыку.