img image001 image001 image001 image001 image001 image001 image001 image001 image001 image001 image001 image001 image001 image001 image001

Planets Sun Sun Sun
Статистика раздачи
Автор: PriZraK | Размер: 1.46 ГБ | Добавлен: 15 фев 2014
Раздают: 110    Качают: 2
Скачать торрент
Скачать торрент
Описание торрента

СообщениеДобавлено: 15 фев 2014 

Информация о фильме
Название: Вино. Зеленая революция
Оригинальное название: Wine: The Green Revolution / Clef des Terroirs
Год выхода: 2011
Жанр: Документальный, научно-познавательный, исследования, энология, история
Режиссер: Гийом Бодин
В ролях: нет

О фильме:
Новая философия вина. Между страстью и поэзией этот фильм рассказывает о жизни виноделов, которые решили жить ближе к природе. Документальный фильм "Вино. Зеленая революция" о изучении биодинамики, альтернативных методах органического земледелия, в мире вина. Эта система сельскохозяйственного производства гармонирующая с природой, была разработана Рудольфом Штайнером.
Задействован 1 актер.
Русская дорожка получена наложением чистого голоса.
Перевод и озвучивание осуществлено в рамках сервиса HDClub "Озвучивание". Спонсоры: ygorgor, Alex_Cabbage, hardkatok, sonder, RAUL, gelom, NickAlex, mentat, Кириллка, Moritz, ork2010, Vitka1107, S_V_E_N, dpoint.
Исходный диск приобретен в рамках сервиса "Копилка: Помоги с Blu-ray". Благодарим: crazy_gringo.

Общее
Полное имя : Wine.The.Green.Revolut.2011.XviD.BDRip.DeathN2Wine.The.Green.Revolut.2011.XviD.BDRip.avi
Формат : AVI
Формат/Информация : Audio Video Interleave
Размер файла : 1,46 Гбайт
Продолжительность : 1 ч. 25 м.
Общий поток : 2463 Кбит/сек
Название фильма : Created by DeathN2
Программа кодирования : VirtualDubMod 1.5.10.2 (build 2540/release)
Библиотека кодирования : VirtualDubMod build 2540/release

Видео
Идентификатор : 0
Формат : MPEG-4 Visual
Профиль формата : Advanced Simple@L5
Параметр BVOP формата : 1
Параметр QPel формата : Нет
Параметр GMC формата : Без точки перехода
Параметр матрицы формата : Default (MPEG)
Идентификатор кодека : XVID
Идентификатор кодека/Подсказка : XviD
Продолжительность : 1 ч. 25 м.
Битрейт : 2064 Кбит/сек
Ширина : 704 пикселя
Высота : 400 пикселей
Соотношение сторон : 16:9
Частота кадров : 23,976 кадра/сек
Цветовое пространство : YUV
Субдискретизация насыщенности : 4:2:0
Битовая глубина : 8 бит
Тип развёртки : Прогрессивная
Метод сжатия : С потерями
Бит/(Пиксели*Кадры) : 0.306
Размер потока : 1,23 Гбайт (84%)
Библиотека кодирования : XviD 1.2.1 (UTC 2008-12-04)

Аудио #1
Идентификатор : 1
Формат : AC-3
Формат/Информация : Audio Coding 3
Расширение режима : CM (complete main)
Параметр Endianness формата : Big
Идентификатор кодека : 2000
Продолжительность : 1 ч. 25 м.
Вид битрейта : Постоянный
Битрейт : 192 Кбит/сек
Каналы : 2 канала
Расположение каналов : Front: L R
Частота : 48,0 КГц
Битовая глубина : 16 бит
Метод сжатия : С потерями
Размер потока : 117 Мбайт (8%)
Выравнивание : Разделение по промежуткам
Продолжительность промежутка : 42 мс. (1,00 видеокадр)
Время предзагрузки промежутка : 500 мс.

Аудио #2
Идентификатор : 2
Формат : AC-3
Формат/Информация : Audio Coding 3
Расширение режима : CM (complete main)
Параметр Endianness формата : Big
Идентификатор кодека : 2000
Продолжительность : 1 ч. 25 м.
Вид битрейта : Постоянный
Битрейт : 192 Кбит/сек
Каналы : 2 канала
Расположение каналов : Front: L R
Частота : 48,0 КГц
Битовая глубина : 16 бит
Метод сжатия : С потерями
Размер потока : 117 Мбайт (8%)
Выравнивание : Разделение по промежуткам
Продолжительность промежутка : 42 мс. (1,00 видеокадр)
Время предзагрузки промежутка : 500 мс.

Общее
Полное имя : Wine.The.Green.Revolut.2011.XviD.BDRip.DeathN2Wine.The.Green.Revolut.2011.XviD.BDRip.Eng.srt
Размер файла : 175 Кбайт



Страна: Франция
Перевод: Одноголосый закадровый, профессиональный, студия «Омикрон» Задействован 1 актер.

Файл
Кодек: XviD
Качество: BDRip
Видео: 704x400, 23.976 fps, ~ 2064 kbps, 0.306 bit/pixel
Звук: Russian, French: AC3, 48 kHz, 2 ch, ~192.00 kbps avg
Субтитры: английские




Релиз от:



   Похожие торренты   Торрент   Размер 
В этой теме нет новых непрочитанных сообщений. Вино. Зеленая революция / Wine: The Green Revolution / Clef des Terroirs (2011) BDRip 720p от HDClub

28 | 2

5.56 ГБ

В этой теме нет новых непрочитанных сообщений. Вино. Зеленая революция / Wine: The Green Revolution / Clef des Terroirs (2011) Blu-Ray Remux 1080p от HDClub

6 | 3

16.01 ГБ

В этой теме нет новых непрочитанных сообщений. Кровь в вино / Blood Into Wine / 2010 / ЛД / BDRip-AVC by msltel

62 | 10

2.79 ГБ

В этой теме нет новых непрочитанных сообщений. Кровь в вино / Blood Into Wine (2010) BDRip 720p by msltel

67 | 4

4.16 ГБ

В этой теме нет новых непрочитанных сообщений. Кровь в вино / Blood Into Wine (2010) BDRip 1080p by msltel

20 | 2

9.44 ГБ

В этой теме нет новых непрочитанных сообщений. Кровь и вино / Blood and Wine (1996) DVD9

0 | 2

7.78 ГБ

В этой теме нет новых непрочитанных сообщений. Кровь и вино / Blood and Wine (1996) DVDRip от ExKinoRay

14 | 5

1.47 ГБ




Вы не можете начинать темы
Вы не можете отвечать на сообщения
Вы не можете редактировать свои сообщения
Вы не можете удалять свои сообщения
Вы не можете добавлять вложения

Перейти:  
Для Мосгорсуда, Роскомнадзора и рекламодателей: mosgorsud-torrent[собачка]yandex.ru
 Вход
ppkBB3cker v.2 © 2008-2014 @ PPK
[ Time : 0.604s | 15 Queries | GZIP : Off ]

Торрент трекер RUTOR.IN, Не можете зайти на rutor.org? Какой новый адрес рутор? Какое зеркало рутор? Не работает rutor.org и зеркала? Тогда наш торрент специально для вас. Rutor.in неофициальное зеркало rutor. В случае если у Вас заблокирован rutor или вдруг Вы не можете на него зайти, то Вы без труда сможете скачать бесплатно и без рекламы последние новинки кино, игр, сериалов и прочего у нас, на Rutor.in. Не нужно использовать прокси, чтобы зайти на рутор, достаточно воспользоваться нашим ресурсом. Все новые фильмы, игры, сериалы, книги и музыка за 2013 и 2014 годы через торрент бесплатно. Скачивайте фильмы в хорошем качестве, игры для пк, xbox, playstation без регистрации. У нас вы найдете новые Зарубежные сериалы и Русские сериалы 2013, 2014, 2015 годов. Оставайтесь с нами, качайте любимые фильмы, игры, сериалы, книги и музыку.