img image001 image001 image001 image001 image001 image001 image001 image001 image001 image001 image001 image001 image001 image001 image001

Planets Sun Sun Sun
Статистика раздачи
Автор: PriZraK | Размер: 5.56 ГБ | Добавлен: 15 фев 2014
Раздают: 28    Качают: 2
Скачать торрент
Скачать торрент
Описание торрента

СообщениеДобавлено: 15 фев 2014 

Информация о фильме
Название: Вино. Зеленая революция
Оригинальное название: Wine: The Green Revolution / Clef des Terroirs
Год выхода: 2011
Жанр: Документальный, научно-познавательный, исследования, энология, история
Режиссер: Гийом Бодин
В ролях: нет

О фильме:
Новая философия вина. Между страстью и поэзией этот фильм рассказывает о жизни виноделов, которые решили жить ближе к природе. Документальный фильм "Вино. Зеленая революция" о изучении биодинамики, альтернативных методах органического земледелия, в мире вина. Эта система сельскохозяйственного производства гармонирующая с природой, была разработана Рудольфом Штайнером.
Сохранены оригинальные чаптеры как на Blu-ray
Задействован 1 актер.
Русская дорожка получена наложением чистого голоса.
Перевод и озвучивание осуществлено в рамках сервиса HDClub "Озвучивание". Спонсоры: ygorgor, Alex_Cabbage, hardkatok, sonder, RAUL, gelom, NickAlex, mentat, Кириллка, Moritz, ork2010, Vitka1107, S_V_E_N, dpoint.
Исходный диск приобретен в рамках сервиса "Копилка: Помоги с Blu-ray". Благодарим: crazy_gringo.


x264 [info]: frame I:676 Avg QP:16.30 size:153380
x264 [info]: frame P:33432 Avg QP:17.80 size: 60465
x264 [info]: frame B:88314 Avg QP:20.04 size: 21734
encoded 122422 frames, 8.66 fps, 6336.95 kb/s

General
Unique ID : 208676969420616570878090518656554419412 (0x9CFDB8EFEF4F0A2AB54ECBC322B0C4D4)
Complete name : Wine.The.Green.Revolution.2011.720p.BluRay.Rus.Fre.HDCLUB.mkv
Format : Matroska
Format version : Version 4 / Version 2
File size : 5.56 GiB
Duration : 1h 25mn
Overall bit rate : 9 356 Kbps
Movie name : Create by DeTorquemada for HDCLUB
Encoded date : UTC 2014-01-17 12:38:07
Writing application : mkvmerge v6.6.0 ('The Edge Of The In Between') built on Dec 1 2013 17:55:00
Writing library : libebml v1.3.0 + libmatroska v1.4.1

Video
ID : 1
Format : AVC
Format/Info : Advanced Video Codec
Format profile : High@L4.1
Format settings, CABAC : Yes
Format settings, ReFrames : 7 frames
Codec ID : V_MPEG4/ISO/AVC
Duration : 1h 25mn
Bit rate : 6 152 Kbps
Width : 1 280 pixels
Height : 720 pixels
Display aspect ratio : 16:9
Frame rate mode : Constant
Frame rate : 23.976 fps
Color space : YUV
Chroma subsampling : 4:2:0
Bit depth : 8 bits
Scan type : Progressive
Bits/(Pixel*Frame) : 0.278
Stream size : 3.66 GiB (66%)
Title : Вино: Зеленая революция / Wine: The Green Revolution / Clef des Terroirs (2011) - Release for HDCLUB
Writing library : x264 core 138 r2358 9e941d1
Encoding settings : cabac=1 / ref=7 / deblock=1:-3:-3 / analyse=0x3:0x113 / me=umh / subme=10 / psy=1 / psy_rd=1.00:0.00 / mixed_ref=1 / me_range=48 / chroma_me=1 / trellis=2 / 8x8dct=1 / cqm=0 / deadzone=21,11 / fast_pskip=1 / chroma_qp_offset=-2 / threads=6 / lookahead_threads=1 / sliced_threads=0 / nr=0 / decimate=1 / interlaced=0 / bluray_compat=0 / constrained_intra=0 / bframes=3 / b_pyramid=2 / b_adapt=2 / b_bias=0 / direct=1 / weightb=1 / open_gop=0 / weightp=2 / keyint=240 / keyint_min=23 / scenecut=40 / intra_refresh=0 / rc_lookahead=65 / rc=crf / mbtree=0 / crf=17.0 / qcomp=0.60 / qpmin=0 / qpmax=69 / qpstep=4 / vbv_maxrate=50000 / vbv_bufsize=62500 / crf_max=0.0 / nal_hrd=none / ip_ratio=1.40 / pb_ratio=1.30 / aq=1:0.80
Language : English
Default : Yes
Forced : No
Matrix coefficients : BT.709

Audio #1
ID : 2
Format : DTS
Format/Info : Digital Theater Systems
Mode : 16
Format settings, Endianness : Big
Codec ID : A_DTS
Duration : 1h 25mn
Bit rate mode : Constant
Bit rate : 1 509 Kbps
Channel(s) : 2 channels
Channel positions : Front: L R
Sampling rate : 48.0 KHz
Bit depth : 24 bits
Compression mode : Lossy
Stream size : 919 MiB (16%)
Title : 48KHz/24-bit, DTS, 2.0 (L,R) ch, 1509 kbps - Одноголосый закадровый, студия "Омикрон"
Language : Russian
Default : Yes
Forced : No

Audio #2
ID : 3
Format : DTS
Format/Info : Digital Theater Systems
Mode : 16
Format settings, Endianness : Big
Codec ID : A_DTS
Duration : 1h 25mn
Bit rate mode : Constant
Bit rate : 1 509 Kbps
Channel(s) : 2 channels
Channel positions : Front: L R
Sampling rate : 48.0 KHz
Bit depth : 24 bits
Compression mode : Lossy
Stream size : 919 MiB (16%)
Title : 48KHz/24-bit, DTS, 2.0 (L,R) ch, 1509 kbps
Language : French
Default : No
Forced : No

Text
ID : 4
Format : UTF-8
Codec ID : S_TEXT/UTF8
Codec ID/Info : UTF-8 Plain Text
Title : Subtitles/Captions
Language : English
Default : No
Forced : No

Menu
00:00:00.000 : en:
00:08:56.953 : en:
00:15:12.703 : en:
00:24:18.039 : en:
00:32:24.025 : en:
00:43:55.882 : en:
00:51:14.154 : en:
00:56:49.197 : en:
01:06:41.831 : en:
01:12:36.643 : en:
01:16:08.021 : en:
01:25:05.433 : en:



Страна: Франция
Перевод: Одноголосый закадровый, профессиональный, студия «Омикрон» Задействован 1 актер.

Файл
Кодек: MPEG-4 AVC
Качество: BDRip 720p
Исходник: Wine: The Green Revolution / Clef des Terroirs (2011) 1080p BD-Remux (tnx MachoSergio)
Видео: 1280x720 at 23.976 fps, x264@L4.1, ~6152 kbps
Аудио: Russian: 48 kHz/24-bit, DTS 2.0, ~1509.00 kbps
Аудио 2: French: 48 kHz/24-bit, DTS 2.0, ~1509.00 kbps
Субтитры: английские





Релиз от: by DeTorquemada



   Похожие торренты   Торрент   Размер 
В этой теме нет новых непрочитанных сообщений. Вино. Зеленая революция / Wine: The Green Revolution / Clef des Terroirs (2011) Blu-Ray Remux 1080p от HDClub

6 | 3

16.01 ГБ

В этой теме нет новых непрочитанных сообщений. Вино. Зеленая революция / Wine: The Green Revolution / Clef des Terroirs (2011) BDRip от DeathN2

110 | 2

1.46 ГБ

В этой теме нет новых непрочитанных сообщений. Кровь в вино / Blood Into Wine (2010) BDRip 720p by msltel

67 | 4

4.16 ГБ

В этой теме нет новых непрочитанных сообщений. Зеленая миля / The Green Mile (1999) BDRip 1080 от HDClub

40 | 10

18.57 ГБ

В этой теме нет новых непрочитанных сообщений. Кровь в вино / Blood Into Wine / 2010 / ЛД / BDRip-AVC by msltel

62 | 10

2.79 ГБ

В этой теме нет новых непрочитанных сообщений. Кровь в вино / Blood Into Wine (2010) BDRip 1080p by msltel

20 | 2

9.44 ГБ

В этой теме нет новых непрочитанных сообщений. Кровь и вино / Blood and Wine (1996) DVD9

0 | 2

7.78 ГБ




Вы не можете начинать темы
Вы не можете отвечать на сообщения
Вы не можете редактировать свои сообщения
Вы не можете удалять свои сообщения
Вы не можете добавлять вложения

Перейти:  
Для Мосгорсуда, Роскомнадзора и рекламодателей: mosgorsud-torrent[собачка]yandex.ru
 Вход
ppkBB3cker v.2 © 2008-2014 @ PPK
[ Time : 0.060s | 15 Queries | GZIP : Off ]

Торрент трекер RUTOR.IN, Не можете зайти на rutor.org? Какой новый адрес рутор? Какое зеркало рутор? Не работает rutor.org и зеркала? Тогда наш торрент специально для вас. Rutor.in неофициальное зеркало rutor. В случае если у Вас заблокирован rutor или вдруг Вы не можете на него зайти, то Вы без труда сможете скачать бесплатно и без рекламы последние новинки кино, игр, сериалов и прочего у нас, на Rutor.in. Не нужно использовать прокси, чтобы зайти на рутор, достаточно воспользоваться нашим ресурсом. Все новые фильмы, игры, сериалы, книги и музыка за 2013 и 2014 годы через торрент бесплатно. Скачивайте фильмы в хорошем качестве, игры для пк, xbox, playstation без регистрации. У нас вы найдете новые Зарубежные сериалы и Русские сериалы 2013, 2014, 2015 годов. Оставайтесь с нами, качайте любимые фильмы, игры, сериалы, книги и музыку.