img image001 image001 image001 image001 image001 image001 image001 image001 image001 image001 image001 image001 image001 image001 image001

Planets Sun Sun Sun
Статистика раздачи
Автор: PriZraK | Размер: 744.59 МБ | Добавлен: 15 фев 2014
Раздают: 12    Качают: 4
Скачать торрент
Скачать торрент
Описание торрента

СообщениеДобавлено: 15 фев 2014 

Святыни на берегу озера



Год выпуска: 2010
Страна: Германия, Польша, Россия
Студия: Komplett-Media GmbH
Жанр: документальный
Продолжительность: 01:24:55

Перевод: Профессиональный (дикторский закадровый)
Субтитры: нет
Оригинальная аудиодорожка: нет

Описание:
Переславль-Залесский в самом названии города уже чудится сказка, и купола его храмов, отражённые в древнем Плещеевом озере, встают на встречу из-за леса, подобно столице сказочного берендеева царства. Город - одно из чудес России. Считается, что основал Переславль - Залесский владимиро-суздальский князь Юрий Долгорукий в 1152 году. Однако издревле на этих землях жило фино-угорское племя меря. При археологических раскопках на берегах озера были обнаружены стоянки древнего человека, относящиеся к VI тысячелетию до нашей эры. Городок Клещин, известен с IX века и упоминается уже в первой русской летописи - Повести временных лет, об этом же свидетельствуют сохранившиеся земляные валы древнего города. А в Никоновской летописи написано так о создании современного города Юрием Долгоруким: град Переяславль от Клещина перенесе и созда больше старого, и церковь в нём поставили камену Святого Спаса... Никитский монастырь имеет тысячелетнюю историю и был основан в 1010 году. В нашем фильме Вы увидите все основные достопримечательности города: старейший на Переславщине - Никитский монастырь, Горицкий монастырь- музей, Фёдоровский, Никольский, Даниловский монастыри... Вы увидите не только храмы и памятники города, но и услышите удивительную историю их создания. Только в нашем фильме Вы побываете в музее утюга и доме Берендея. Увидите где чайники живут. А таких паровозов как в местном музее узкоколейки Вы не найдёте нигде в мире. Прекрасные уголки русской природы, воспетые Михаилом Пришвиным, легендарный Синь-камень, исторические места, связанные с создание русского флота Петром Первым - всё в Ваших руках на этом диске. Не возможно в одном фильме объять всю историю, все памятники этого удивительного и своеобразного городка, показать все прекрасные и загадочные уголки, наполненные историческими событиями, чудесами, сказками и преданиями... Современный город и сегодня остаётся заповедным местом, пленяет уютом и спокойствием узких удочек, тихим течением Трубежа, водными пейзажами, уходящего в облака Плещеева озера, красотой древних храмов. В любое время года здесь прекрасно... И ждут Вас легендарные святые места земли русской...





Исходник: DVD5 R5
Тип релиза: DVDRip
Контейнер: AVI

Видео: 640x480 (4:3), 25 fps, XviD ~ 1088 kbps avg, 0.142 bit/pixel
Аудио: 48 kHz, MP3 2.0, 128.00 kbps

Раздача от:
Общее
Полное имя : Pereslavl-Zalesskiy.2010.DVDRip-745_[New-team]_by_AVP_Studio.avi
Формат : AVI
Формат/Информация : Audio Video Interleave
Размер файла : 745 Мбайт
Продолжительность : 1 ч. 24 м.
Общий поток : 1226 Кбит/сек
Программа кодирования : VirtualDubModRus 1.5.10.2 (build 2542/release)
Библиотека кодирования : VirtualDubMod build 2542/release

Видео
Идентификатор : 0
Формат : MPEG-4 Visual
Профиль формата : Advanced Simple@L5
Параметр BVOP формата : 1
Параметр QPel формата : Нет
Параметр GMC формата : Без точки перехода
Параметр матрицы формата : Выборочная
Идентификатор кодека : XVID
Идентификатор кодека/Подсказка : XviD
Продолжительность : 1 ч. 24 м.
Битрейт : 1088 Кбит/сек
Ширина : 640 пикселей
Высота : 480 пикселей
Соотношение сторон : 4:3
Частота кадров : 25,000 кадров/сек
Цветовое пространство : YUV
Субдискретизация насыщенности : 4:2:0
Битовая глубина : 8 бит
Тип развёртки : Прогрессивная
Метод сжатия : С потерями
Бит/(Пиксели*Кадры) : 0.142
Размер потока : 661 Мбайт (89%)
Библиотека кодирования : XviD 73

Аудио
Идентификатор : 1
Формат : MPEG Audio
Версия формата : Version 1
Профиль формата : Layer 3
Идентификатор кодека : 55
Идентификатор кодека/Подсказка : MP3
Продолжительность : 1 ч. 24 м.
Вид битрейта : Постоянный
Битрейт : 128 Кбит/сек
Каналы : 2 канала
Частота : 48,0 КГц
Метод сжатия : С потерями
Размер потока : 77,7 Мбайт (10%)
Выравнивание : Соединение по промежуткам
Продолжительность промежутка : 40 мс. (1,00 видеокадр)
Время предзагрузки промежутка : 504 мс.
Библиотека кодирования : LAME3.99r
Настройки программы : -m s -V 4 -q 2 -lowpass 17 -b 128





   Похожие торренты   Торрент   Размер 
В этой теме нет новых непрочитанных сообщений. Путешествие по Европе. Выпуск №49: Переславль-Залесский (2010) DVDRip-AVC от New-Team

8 | 5

1.46 ГБ

В этой теме нет новых непрочитанных сообщений. Путешествие по Европе. Выпуск №49: Переславль-Залесский (2010) DVDRip от New-Team

3 | 6

1.46 ГБ

В этой теме нет новых непрочитанных сообщений. Путешествие по Европе. Выпуск №49: Переславль-Залесский (2010) DVD5 R5 от New-Team

7 | 3

3.99 ГБ

В этой теме нет новых непрочитанных сообщений. Путешествие по Европе. Выпуск №48: Сардиния (2010) DVDRip-AVC от New-Team

9 | 4

1.46 ГБ

В этой теме нет новых непрочитанных сообщений. Путешествие по Европе. Выпуск №28: Венгрия (2010) DVDRip-AVC от New-Team

4 | 3

1.46 ГБ

В этой теме нет новых непрочитанных сообщений. Путешествие по Европе. Выпуск №42: Бретань (2010) DVDRip от New-Team

5 | 3

746.79 МБ

В этой теме нет новых непрочитанных сообщений. Путешествие по Европе. Выпуск №28: Венгрия (2010) DVDRip от New-Team

0 | 2

744.98 МБ




Вы не можете начинать темы
Вы не можете отвечать на сообщения
Вы не можете редактировать свои сообщения
Вы не можете удалять свои сообщения
Вы не можете добавлять вложения

Перейти:  
Для Мосгорсуда, Роскомнадзора и рекламодателей: mosgorsud-torrent[собачка]yandex.ru
 Вход
ppkBB3cker v.2 © 2008-2014 @ PPK
[ Time : 0.532s | 16 Queries | GZIP : Off ]

Торрент трекер RUTOR.IN, Не можете зайти на rutor.org? Какой новый адрес рутор? Какое зеркало рутор? Не работает rutor.org и зеркала? Тогда наш торрент специально для вас. Rutor.in неофициальное зеркало rutor. В случае если у Вас заблокирован rutor или вдруг Вы не можете на него зайти, то Вы без труда сможете скачать бесплатно и без рекламы последние новинки кино, игр, сериалов и прочего у нас, на Rutor.in. Не нужно использовать прокси, чтобы зайти на рутор, достаточно воспользоваться нашим ресурсом. Все новые фильмы, игры, сериалы, книги и музыка за 2013 и 2014 годы через торрент бесплатно. Скачивайте фильмы в хорошем качестве, игры для пк, xbox, playstation без регистрации. У нас вы найдете новые Зарубежные сериалы и Русские сериалы 2013, 2014, 2015 годов. Оставайтесь с нами, качайте любимые фильмы, игры, сериалы, книги и музыку.
cron