img image001 image001 image001 image001 image001 image001 image001 image001 image001 image001 image001 image001 image001 image001 image001

Planets Sun Sun Sun
Статистика раздачи
Автор: PriZraK | Размер: 745.63 МБ | Добавлен: 15 фев 2014
Раздают: 0    Качают: 2
Скачать торрент
Скачать торрент
Описание торрента

СообщениеДобавлено: 15 фев 2014 

Солнечный архипелаг



Год выпуска: 2009
Страна: Германия, Польша, Россия
Студия: Komplett-Media GmbH
Жанр: документальный
Продолжительность: 01:29:40

Перевод: Профессиональный (дикторский закадровый)
Субтитры: нет
Оригинальная аудиодорожка: нет

Описание:
«Киклос», что значит «круг», - так жители Микен назвали кольцо, состоящее из 56 крупных и более мелких, скалистых островов, лежащих меж Афинами и Критом в юго-западной части Эгейского моря. Лишь 24 из них обитаемы. Самые маленькие из них еще не пострадали от жителей цивилизованного мира, зато самые крупные посещают миллионы туристов. Тира (Санторини) – это кусочек суши, оставшийся после мощного извержения вулкана на острове, который давно, подобно таинственной Атлантиде, погрузился в воду. Через несколько лет, когда лава застыла, остров был заселен заново. На кальдере появились небольшие живописные города, например, Тира и Ойя. Иос известен как место, где предположительно скрывался Гомер, но молодежь больше привлекают многочисленные дискотеки, где веселье длится до самого утра. Наксос, самый большой остров архипелага, несмотря на наплыв туристов, сохранил свой естественный облик. Разнообразные пейзажи, памятники старины, идиллические поселения и солнечное побережье гарантируют удачный отдых. Соседний остров Парос с городом Пароикия, самым важным портом на архипелаге, и городами Науса и Лефкес, которые хоть и меньше Пароикии, но намного романтичнее, - это Мекка для туристов. На Миконосе царит нескончаемое веселье, в пик сезона остров трещит по швам. От громкой музыке можно скрыться на маленьком необитаемом острове Делос, являющимся самым знаменитым местом проведения археологических раскопок во всей Греции...





Исходник: DVD5 R5
Тип релиза: DVDRip
Контейнер: AVI

Видео: 640x480 (4:3), 25 fps, XviD ~ 1025 kbps avg, 0.133 bit/pixel
Аудио: 48 kHz, MP3 2.0, 128.00 kbps

Раздача от:
Общее
Полное имя : Kiklady.2009.DVDRip-745_[New-team]_by_AVP_Studio.avi
Формат : AVI
Формат/Информация : Audio Video Interleave
Размер файла : 746 Мбайт
Продолжительность : 1 ч. 29 м.
Общий поток : 1162 Кбит/сек
Программа кодирования : VirtualDubModRus 1.5.10.2 (build 2542/release)
Библиотека кодирования : VirtualDubMod build 2542/release

Видео
Идентификатор : 0
Формат : MPEG-4 Visual
Профиль формата : Advanced Simple@L5
Параметр BVOP формата : 1
Параметр QPel формата : Нет
Параметр GMC формата : Без точки перехода
Параметр матрицы формата : Выборочная
Идентификатор кодека : XVID
Идентификатор кодека/Подсказка : XviD
Продолжительность : 1 ч. 29 м.
Битрейт : 1025 Кбит/сек
Ширина : 640 пикселей
Высота : 480 пикселей
Соотношение сторон : 4:3
Частота кадров : 25,000 кадров/сек
Цветовое пространство : YUV
Субдискретизация насыщенности : 4:2:0
Битовая глубина : 8 бит
Тип развёртки : Прогрессивная
Метод сжатия : С потерями
Бит/(Пиксели*Кадры) : 0.133
Размер потока : 657 Мбайт (88%)
Библиотека кодирования : XviD 73

Аудио
Идентификатор : 1
Формат : MPEG Audio
Версия формата : Version 1
Профиль формата : Layer 3
Идентификатор кодека : 55
Идентификатор кодека/Подсказка : MP3
Продолжительность : 1 ч. 29 м.
Вид битрейта : Постоянный
Битрейт : 128 Кбит/сек
Каналы : 2 канала
Частота : 48,0 КГц
Метод сжатия : С потерями
Размер потока : 82,1 Мбайт (11%)
Выравнивание : Соединение по промежуткам
Продолжительность промежутка : 40 мс. (1,00 видеокадр)
Время предзагрузки промежутка : 504 мс.
Библиотека кодирования : LAME3.99r
Настройки программы : -m s -V 4 -q 2 -lowpass 17 -b 128





   Похожие торренты   Торрент   Размер 
В этой теме нет новых непрочитанных сообщений. Путешествие по Европе. Выпуск №50: Киклады (2009) DVDRip от New-Team

5 | 2

1.46 ГБ

В этой теме нет новых непрочитанных сообщений. Путешествие по Европе. Выпуск №50: Киклады (2009) DVDRip от New-Team

15 | 4

1.46 ГБ

В этой теме нет новых непрочитанных сообщений. Путешествие по Европе. Выпуск №50: Киклады (2009) DVD5 R5 от New-Team

6 | 7

4.01 ГБ

В этой теме нет новых непрочитанных сообщений. Путешествие по Европе. Выпуск №29: Шотландия (2009) DVDRip от New-Team

1 | 2

1.09 ГБ

В этой теме нет новых непрочитанных сообщений. Путешествие по Европе. Выпуск №29: Шотландия (2009) DVDRip-AVC от New-Team

1 | 2

1.09 ГБ

В этой теме нет новых непрочитанных сообщений. Путешествие по Европе. Выпуск №27: Сицилия (2009) DVDRip от New-Team

0 | 1

745.22 МБ

В этой теме нет новых непрочитанных сообщений. Путешествие по Европе. Выпуск №29: Шотландия (2009) DVDRip от New-Team

2 | 3

743.17 МБ




Вы не можете начинать темы
Вы не можете отвечать на сообщения
Вы не можете редактировать свои сообщения
Вы не можете удалять свои сообщения
Вы не можете добавлять вложения

Перейти:  
Для Мосгорсуда, Роскомнадзора и рекламодателей: mosgorsud-torrent[собачка]yandex.ru
 Вход
ppkBB3cker v.2 © 2008-2014 @ PPK
[ Time : 0.031s | 15 Queries | GZIP : On ]

Торрент трекер RUTOR.IN, Не можете зайти на rutor.org? Какой новый адрес рутор? Какое зеркало рутор? Не работает rutor.org и зеркала? Тогда наш торрент специально для вас. Rutor.in неофициальное зеркало rutor. В случае если у Вас заблокирован rutor или вдруг Вы не можете на него зайти, то Вы без труда сможете скачать бесплатно и без рекламы последние новинки кино, игр, сериалов и прочего у нас, на Rutor.in. Не нужно использовать прокси, чтобы зайти на рутор, достаточно воспользоваться нашим ресурсом. Все новые фильмы, игры, сериалы, книги и музыка за 2013 и 2014 годы через торрент бесплатно. Скачивайте фильмы в хорошем качестве, игры для пк, xbox, playstation без регистрации. У нас вы найдете новые Зарубежные сериалы и Русские сериалы 2013, 2014, 2015 годов. Оставайтесь с нами, качайте любимые фильмы, игры, сериалы, книги и музыку.