img image001 image001 image001 image001 image001 image001 image001 image001 image001 image001 image001 image001 image001 image001 image001

Planets Sun Sun Sun
Статистика раздачи
Автор: PriZraK | Размер: 1.63 ГБ | Добавлен: 15 фев 2014
Раздают: 48    Качают: 3
Скачать торрент
Скачать торрент
Описание торрента

СообщениеДобавлено: 15 фев 2014 

Год выпуска: 2011-2013
Страна: Россия
Жанр: документальный
Продолжительность: 4 х ~00:26:00
Режиссер: телеканал "Моя планета"

Описание:
Беспрецедентный проект "Чудеса России" предлагает телезрителям познакомиться с самыми красивыми и значительными достопримечательностями нашей Родины! Своеобразный атлас "Чудес России" был составлен по результатам всенародного голосования, проведенного холдингом ВГТРК.

Выпуски:
Мышкин
Озеро Тургояк
Собор Василия Блаженного
Тобольский Кремль



Качество: HDTVRip
Формат:AVI
Видео кодек: XviD
Аудио кодек: AC-3
Видео: 16:9, 2000 Кбит/сек, 720x400, 25,000 кадров/сек
Аудио: AC-3, 2 канала, 256 Кбит/сек, 48,0 КГц
Общее
Полное имя : D:Чудеса РоссииМышкин.[R.G.RealMT].avi
Формат : AVI
Формат/Информация : Audio Video Interleave
Размер файла : 411 Мбайт
Продолжительность : 25 м.
Общий поток : 2266 Кбит/сек
Программа кодирования : VirtualDubMod 1.5.10.3 | www.virtualdub-fr.org || (build 2550/release)
Библиотека кодирования : VirtualDubMod build 2550/release

Видео
Идентификатор : 0
Формат : MPEG-4 Visual
Профиль формата : Advanced Simple@L5
Параметр BVOP формата : 2
Параметр QPel формата : Нет
Параметр GMC формата : Без точки перехода
Параметр матрицы формата : Default (H.263)
Режим смешивания : Сжатый битовый поток
Идентификатор кодека : XVID
Идентификатор кодека/Подсказка : XviD
Продолжительность : 25 м.
Битрейт : 2000 Кбит/сек
Ширина : 720 пикселей
Высота : 400 пикселей
Соотношение сторон : 16:9
Частота кадров : 25,000 кадров/сек
Цветовое пространство : YUV
Субдискретизация насыщенности : 4:2:0
Битовая глубина : 8 бит
Тип развёртки : Прогрессивная
Метод сжатия : С потерями
Бит/(Пиксели*Кадры) : 0.278
Размер потока : 363 Мбайт (88%)
Библиотека кодирования : XviD 1.2.1 (UTC 2008-12-04)

Аудио
Идентификатор : 1
Формат : AC-3
Формат/Информация : Audio Coding 3
Расширение режима : CM (complete main)
Параметр Endianness формата : Big
Идентификатор кодека : 2000
Продолжительность : 25 м.
Вид битрейта : Постоянный
Битрейт : 256 Кбит/сек
Каналы : 2 канала
Расположение каналов : Front: L R
Частота : 48,0 КГц
Битовая глубина : 16 бит
Метод сжатия : С потерями
Размер потока : 46,5 Мбайт (11%)
Выравнивание : Разделение по промежуткам
Продолжительность промежутка : 40 мс. (1,00 видеокадр)
Время предзагрузки промежутка : 500 мс.



Релиз от:



   Похожие торренты   Торрент   Размер 
В этой теме нет новых непрочитанных сообщений. Чудеса России [01-14] (2011-2013) HDTVRip от Generalfilm

94 | 33

4.76 ГБ

В этой теме нет новых непрочитанных сообщений. Чудеса России [01-19] (2011-2013) HDTVRip 720p

39 | 9

12.52 ГБ

В этой теме нет новых непрочитанных сообщений. Чудеса России [01-14] (2011-2013) HDTVRip от Generalfilm

38 | 5

4.45 ГБ

В этой теме нет новых непрочитанных сообщений. Застывшая планета / Замёрзшая планета / Frozen Planet [01-08 из 08] (2011) HDRip от R.G.RealMT | A1

6 | 8

6.86 ГБ

В этой теме нет новых непрочитанных сообщений. Застывшая планета / Замёрзшая планета / Frozen Planet [01-08 из 08] (2011) BDRip 720p от R.G.RealMT | A1

5 | 6

16.04 ГБ

В этой теме нет новых непрочитанных сообщений. Чудеса России: Валаам. Земля Бога (2011) HDTVRip от HitWay

96 | 22

307.03 МБ

В этой теме нет новых непрочитанных сообщений. Чудеса России: Царское Село (2013) HDTVRip от HitWay

111 | 6

314.68 МБ




Вы не можете начинать темы
Вы не можете отвечать на сообщения
Вы не можете редактировать свои сообщения
Вы не можете удалять свои сообщения
Вы не можете добавлять вложения

Перейти:  
Для Мосгорсуда, Роскомнадзора и рекламодателей: mosgorsud-torrent[собачка]yandex.ru
 Вход
ppkBB3cker v.2 © 2008-2014 @ PPK
[ Time : 2.985s | 15 Queries | GZIP : Off ]

Торрент трекер RUTOR.IN, Не можете зайти на rutor.org? Какой новый адрес рутор? Какое зеркало рутор? Не работает rutor.org и зеркала? Тогда наш торрент специально для вас. Rutor.in неофициальное зеркало rutor. В случае если у Вас заблокирован rutor или вдруг Вы не можете на него зайти, то Вы без труда сможете скачать бесплатно и без рекламы последние новинки кино, игр, сериалов и прочего у нас, на Rutor.in. Не нужно использовать прокси, чтобы зайти на рутор, достаточно воспользоваться нашим ресурсом. Все новые фильмы, игры, сериалы, книги и музыка за 2013 и 2014 годы через торрент бесплатно. Скачивайте фильмы в хорошем качестве, игры для пк, xbox, playstation без регистрации. У нас вы найдете новые Зарубежные сериалы и Русские сериалы 2013, 2014, 2015 годов. Оставайтесь с нами, качайте любимые фильмы, игры, сериалы, книги и музыку.