img image001 image001 image001 image001 image001 image001 image001 image001 image001 image001 image001 image001 image001 image001 image001

Planets Sun Sun Sun
Статистика раздачи
Автор: PriZraK | Размер: 700.25 МБ | Добавлен: 16 фев 2014
Раздают: 55    Качают: 7
Скачать торрент
Скачать торрент
Описание торрента

СообщениеДобавлено: 16 фев 2014 

Человек против гепарда
Man v. Cheetah
Man vs. Cheetah




Год выпуска: 2013
Страна: США
Жанр: Документальный
Продолжительность: 00:43:59
Перевод: Профессиональный (дублированный) | Денис Некрасов / АРК·ТВ
Интервью и комментарии - Профессиональный (одноголосый закадровый)
Русские субтитры: нет


Режиссер: Роберт Каррен / Robert Curran

Описание: Возьмите самое быстрое млекопитающее на планете и сравните его с двумя наиболее быстрыми профессиональными атлетами: кто победит ... и какие шокирующие тайны откроются? Сидя в первом ряду, мы наблюдаем за игроком в американский футбол Крисом Джонсоном - самым быстрым раннин бэком лиги НФЛ - и Дэвином Хестером. Они участвуют в необычайном противостоянии, единственном в своем роде - соревновании один – на – один с гепардом.
Гепарды будут состязаться с лучшими игроками НФЛ (национальной футбольной лиги). Кто победит? Сможет ли человек обогнать самого быстрого представителя царства животных из семейства кошачьих? Возможно всё.


Автор рипа: Leo.pard
Исходник: HDTV 1080i Спасибо LeXa 84!


Kачество: HDTVRip
Формат: AVI
Видео: XviD, 720x400 (16:9), 2024 Kbps, 25 fps
Аудио: MP2, 192 Kbps, 48 KHz, 2 channels

Сэмпл: http://multi-up.com/949335

General
Complete name : D:Chelovek.protiv.geparda.2013.HDTVRip.avi
Format : AVI
Format/Info : Audio Video Interleave
File size : 700 MiB
Duration : 43mn 59s
Overall bit rate : 2 226 Kbps
Writing application : VirtualDubMod 1.5.10.3 | www.virtualdub-fr.org || (build 2550/release)
Writing library : VirtualDubMod build 2550/release

Video
ID : 0
Format : MPEG-4 Visual
Format profile : Advanced Simple@L5
Format settings, BVOP : 1
Format settings, QPel : No
Format settings, GMC : No warppoints
Format settings, Matrix : Custom
Codec ID : XVID
Codec ID/Hint : XviD
Duration : 43mn 59s
Bit rate : 2 024 Kbps
Width : 720 pixels
Height : 400 pixels
Display aspect ratio : 16:9
Frame rate : 25.000 fps
Color space : YUV
Chroma subsampling : 4:2:0
Bit depth : 8 bits
Scan type : Progressive
Compression mode : Lossy
Bits/(Pixel*Frame) : 0.281
Stream size : 637 MiB (91%)
Writing library : XviD 73

Audio
ID : 1
Format : MPEG Audio
Format version : Version 1
Format profile : Layer 2
Codec ID : 50
Duration : 43mn 59s
Bit rate mode : Constant
Bit rate : 192 Kbps
Channel(s) : 2 channels
Sampling rate : 48.0 KHz
Compression mode : Lossy
Stream size : 60.4 MiB (9%)
Alignment : Aligned on interleaves
Interleave, duration : 40 ms (1.00 video frame)
Interleave, preload duration : 504 ms







   Похожие торренты   Торрент   Размер 
В этой теме нет новых непрочитанных сообщений. Nat Geo Wild: Человек против гепарда / Man v. Cheetah / Man vs. Cheetah (2013) HDTVRip-AVC от Leo.pard | D

23 | 10

699.48 МБ

В этой теме нет новых непрочитанных сообщений. National Geographic. Кошачьи войны: Лев против Гепарда / Cat Wars: Lion vs. Cheetah (2011) HDTVRip-AVC от SilverCinema

33 | 2

668.41 МБ

В этой теме нет новых непрочитанных сообщений. Гепард - борьба за признание / Cheetah - Race to Rule (2013) HDTVRip-AVC от Leo.pard | D

29 | 4

699.9 МБ

В этой теме нет новых непрочитанных сообщений. Гепард - борьба за признание / Cheetah - Race to Rule (2013) HDTVRip от Leo.pard | D

8 | 2

699.48 МБ

В этой теме нет новых непрочитанных сообщений. Гепард: Фатальный инстинкт / Cheetah: Fatal Instinct (2012) HDTVRip-AVC от Leo.pard | D

16 | 4

699.52 МБ

В этой теме нет новых непрочитанных сообщений. Царство гепардов / Cheetah Kingdom [01-12 из 12] (2010) HDTVRip от Fenix

2 | 2

4.65 ГБ

В этой теме нет новых непрочитанных сообщений. Гепарды - Наперекор всему / Cheetah - Against All Odds ( 2008) HDTVRip-AVC от ~ F-Torrents ~

1 | 1

692.43 МБ




Вы не можете начинать темы
Вы не можете отвечать на сообщения
Вы не можете редактировать свои сообщения
Вы не можете удалять свои сообщения
Вы не можете добавлять вложения

Перейти:  
Для Мосгорсуда, Роскомнадзора и рекламодателей: mosgorsud-torrent[собачка]yandex.ru
 Вход
ppkBB3cker v.2 © 2008-2014 @ PPK
[ Time : 0.070s | 15 Queries | GZIP : Off ]

Торрент трекер RUTOR.IN, Не можете зайти на rutor.org? Какой новый адрес рутор? Какое зеркало рутор? Не работает rutor.org и зеркала? Тогда наш торрент специально для вас. Rutor.in неофициальное зеркало rutor. В случае если у Вас заблокирован rutor или вдруг Вы не можете на него зайти, то Вы без труда сможете скачать бесплатно и без рекламы последние новинки кино, игр, сериалов и прочего у нас, на Rutor.in. Не нужно использовать прокси, чтобы зайти на рутор, достаточно воспользоваться нашим ресурсом. Все новые фильмы, игры, сериалы, книги и музыка за 2013 и 2014 годы через торрент бесплатно. Скачивайте фильмы в хорошем качестве, игры для пк, xbox, playstation без регистрации. У нас вы найдете новые Зарубежные сериалы и Русские сериалы 2013, 2014, 2015 годов. Оставайтесь с нами, качайте любимые фильмы, игры, сериалы, книги и музыку.