img image001 image001 image001 image001 image001 image001 image001 image001 image001 image001 image001 image001 image001 image001 image001

Planets Sun Sun Sun
Статистика раздачи
Автор: PriZraK | Размер: 700.24 МБ | Добавлен: 15 фев 2014
Раздают: 127    Качают: 28
Скачать торрент
Скачать торрент
Описание торрента

СообщениеДобавлено: 15 фев 2014 

Пума против волка
Cougar vs Wolf




Год выпуска: 2013
Страна: США
Жанр: Документальный
Продолжительность: 00:42:14
Перевод: Профессиональный (одноголосый закадровый)
Русские субтитры: нет


Режиссер: Дэвид Мэдисон / David Madison

Описание: Эксперт по пумам Бун Смит отправляется в горы Биттеррут в Монтане, чтобы понаблюдать за борьбой двух главных обитающих там хищников.


Автор рипа: Leo.pard
Исходник: HDTV 1080i Спасибо LeXa 84!


Kачество: HDTVRip
Формат: AVI
Видео: XviD, 720x400 (16:9), 2116 Kbps, 25 fps
Аудио: MP2, 192 Kbps, 48 KHz, 2 channels

Сэмпл: http://multi-up.com/949393

General
Complete name : D:Puma.protiv.volka.2013.HDTVRip.avi
Format : AVI
Format/Info : Audio Video Interleave
File size : 700 MiB
Duration : 42mn 14s
Overall bit rate : 2 318 Kbps
Writing application : VirtualDubMod 1.5.10.3 | www.virtualdub-fr.org || (build 2550/release)
Writing library : VirtualDubMod build 2550/release

Video
ID : 0
Format : MPEG-4 Visual
Format profile : Advanced Simple@L5
Format settings, BVOP : 1
Format settings, QPel : No
Format settings, GMC : No warppoints
Format settings, Matrix : Custom
Codec ID : XVID
Codec ID/Hint : XviD
Duration : 42mn 14s
Bit rate : 2 116 Kbps
Width : 720 pixels
Height : 400 pixels
Display aspect ratio : 16:9
Frame rate : 25.000 fps
Color space : YUV
Chroma subsampling : 4:2:0
Bit depth : 8 bits
Scan type : Progressive
Compression mode : Lossy
Bits/(Pixel*Frame) : 0.294
Stream size : 639 MiB (91%)
Writing library : XviD 73

Audio
ID : 1
Format : MPEG Audio
Format version : Version 1
Format profile : Layer 2
Codec ID : 50
Duration : 42mn 14s
Bit rate mode : Constant
Bit rate : 192 Kbps
Channel(s) : 2 channels
Sampling rate : 48.0 KHz
Compression mode : Lossy
Stream size : 58.0 MiB (8%)
Alignment : Aligned on interleaves
Interleave, duration : 40 ms (1.00 video frame)
Interleave, preload duration : 504 ms







   Похожие торренты   Торрент   Размер 
В этой теме нет новых непрочитанных сообщений. Nat Geo Wild: Пума против волка / Cougar vs Wolf (2013) HDTVRip-AVC от Leo.pard | P1

77 | 12

700.33 МБ

В этой теме нет новых непрочитанных сообщений. Nat Geo Wild: Американская пума / American Cougar (2011) HDTVRip-AVC от Leo.pard | P1

0 | 2

700.62 МБ

В этой теме нет новых непрочитанных сообщений. Nat Geo Wild: Американская пума / American Cougar (2011) HDTVRip от Leo.pard | P1

0 | 2

699.47 МБ

В этой теме нет новых непрочитанных сообщений. Nat Geo Wild: Человек против гепарда / Man v. Cheetah / Man vs. Cheetah (2013) HDTVRip от Leo.pard | D

55 | 7

700.25 МБ

В этой теме нет новых непрочитанных сообщений. Nat Geo Wild: Человек против гепарда / Man v. Cheetah / Man vs. Cheetah (2013) HDTVRip-AVC от Leo.pard | D

23 | 10

699.48 МБ

В этой теме нет новых непрочитанных сообщений. Nat Geo Wild: Бетти Уайт: защитница больших кошек / Betty White goes wild! (2013) HDTVRip-AVC от Leo.pard | P1

4 | 5

700.45 МБ

В этой теме нет новых непрочитанных сообщений. Nat Geo Wild: Бетти Уайт: защитница больших кошек / Betty White goes wild! (2013) HDTVRip от Leo.pard | P1

66 | 11

700.3 МБ




Вы не можете начинать темы
Вы не можете отвечать на сообщения
Вы не можете редактировать свои сообщения
Вы не можете удалять свои сообщения
Вы не можете добавлять вложения

Перейти:  
Для Мосгорсуда, Роскомнадзора и рекламодателей: mosgorsud-torrent[собачка]yandex.ru
 Вход
ppkBB3cker v.2 © 2008-2014 @ PPK
[ Time : 0.526s | 15 Queries | GZIP : Off ]

Торрент трекер RUTOR.IN, Не можете зайти на rutor.org? Какой новый адрес рутор? Какое зеркало рутор? Не работает rutor.org и зеркала? Тогда наш торрент специально для вас. Rutor.in неофициальное зеркало rutor. В случае если у Вас заблокирован rutor или вдруг Вы не можете на него зайти, то Вы без труда сможете скачать бесплатно и без рекламы последние новинки кино, игр, сериалов и прочего у нас, на Rutor.in. Не нужно использовать прокси, чтобы зайти на рутор, достаточно воспользоваться нашим ресурсом. Все новые фильмы, игры, сериалы, книги и музыка за 2013 и 2014 годы через торрент бесплатно. Скачивайте фильмы в хорошем качестве, игры для пк, xbox, playstation без регистрации. У нас вы найдете новые Зарубежные сериалы и Русские сериалы 2013, 2014, 2015 годов. Оставайтесь с нами, качайте любимые фильмы, игры, сериалы, книги и музыку.