img image001 image001 image001 image001 image001 image001 image001 image001 image001 image001 image001 image001 image001 image001 image001

Planets Sun Sun Sun
Статистика раздачи
Автор: PriZraK | Размер: 700.34 МБ | Добавлен: 15 фев 2014
Раздают: 86    Качают: 9
Скачать торрент
Скачать торрент
Описание торрента

СообщениеДобавлено: 15 фев 2014 

Кевин Ричардсон - Заклинатель львов
Kevin Richardson - Lion Whisperer




Год выпуска: 2013
Страна: США
Жанр: Документальный
Продолжительность: 00:43:59
Перевод: Профессиональный (одноголосый закадровый) Денис Некрасов / АРК·ТВ
Русские субтитры: нет


Режиссер: Fabrice Puchault

Описание: Много лет Кевин живет в окружении прирученных им львов. Он обнимает их, ласкает, заботится о них и даже путешествует с ними на большие расстояния. Убежденный, что кнутом и палкой животных приручить нельзя, он использует другие методы, позволяющие ему сближаться с животными с самого их рождения. Симпатия, доверие и даже любовь, питаемые им по отношению к этим животным - не без основания считаемым самыми опасными в мире - позволили ему создать свой собственный язык общения. Он утверждает, что нашел инстинктивный подход к львам, позволяющий сливаться с ними в теснейших узах. В этом документальном фильме зритель сможет погрузиться в глубину этих удивительных отношений. Будучи жителем Южной Африки, где эти звери становятся жертвами браконьеров и авантюристов, Кевин Ричардсон пытается разоблачить опасные тенденции и защитить царей саванны, которых он знает лучше, чем кто-либо другой, от несправедливого преследования.


Автор рипа: Leo.pard
Исходник: HDTV 1080i Спасибо LeXa 84!


Kачество: HDTVRip
Формат: AVI
Видео: XviD, 720x400 (16:9), 2024 Kbps, 25 fps
Аудио: MP2, 192 Kbps, 48 KHz, 2 channels

Сэмпл: http://multi-up.com/950601

General
Complete name : D:Kevin.Richardson-Zaklinatel.lvov.2013.HDTVRip.avi
Format : AVI
Format/Info : Audio Video Interleave
File size : 700 MiB
Duration : 43mn 59s
Overall bit rate : 2 226 Kbps
Writing application : VirtualDubMod 1.5.10.3 | www.virtualdub-fr.org || (build 2550/release)
Writing library : VirtualDubMod build 2550/release

Video
ID : 0
Format : MPEG-4 Visual
Format profile : Advanced Simple@L5
Format settings, BVOP : 1
Format settings, QPel : No
Format settings, GMC : No warppoints
Format settings, Matrix : Custom
Codec ID : XVID
Codec ID/Hint : XviD
Duration : 43mn 59s
Bit rate : 2 024 Kbps
Width : 720 pixels
Height : 400 pixels
Display aspect ratio : 16:9
Frame rate : 25.000 fps
Color space : YUV
Chroma subsampling : 4:2:0
Bit depth : 8 bits
Scan type : Progressive
Compression mode : Lossy
Bits/(Pixel*Frame) : 0.281
Stream size : 637 MiB (91%)
Writing library : XviD 73

Audio
ID : 1
Format : MPEG Audio
Format version : Version 1
Format profile : Layer 2
Codec ID : 50
Duration : 43mn 59s
Bit rate mode : Constant
Bit rate : 192 Kbps
Channel(s) : 2 channels
Sampling rate : 48.0 KHz
Compression mode : Lossy
Stream size : 60.4 MiB (9%)
Alignment : Aligned on interleaves
Interleave, duration : 40 ms (1.00 video frame)
Interleave, preload duration : 504 ms







   Похожие торренты   Торрент   Размер 
В этой теме нет новых непрочитанных сообщений. Nat Geo Wild: Кевин Ричардсон - Заклинатель львов / Kevin Richardson - Lion Whisperer (2013) HDTVRip-AVC от Leo.pard | P1

17 | 19

700.43 МБ

В этой теме нет новых непрочитанных сообщений. Nat Geo Wild: Война львов / Lion Battle Zone (2011) HDTVRip от Leo.pard | D

28 | 3

699.55 МБ

В этой теме нет новых непрочитанных сообщений. Nat Geo Wild: Игры львов / Game of Lions (2013) HDTVRip от Leo.pard | D

98 | 6

700.29 МБ

В этой теме нет новых непрочитанных сообщений. Nat Geo Wild: Игры львов / Game of Lions (2013) HDTVRip-AVC от Leo.pard | D

63 | 12

699.33 МБ

В этой теме нет новых непрочитанных сообщений. National Geographic. Дикая Ботсвана: Братство львов / Wild Botswana: Lion Brotherhood (2014) HDTVRip от -=HD-NET=-

82 | 6

600.63 МБ

В этой теме нет новых непрочитанных сообщений. Заклинатель лошадей / The Horse Whisperer (1998) DVDRip

34 | 3

1.3 ГБ

В этой теме нет новых непрочитанных сообщений. Заклинатель лошадей / The Horse Whisperer (1998) DVDRip

5 | 4

2.05 ГБ




Вы не можете начинать темы
Вы не можете отвечать на сообщения
Вы не можете редактировать свои сообщения
Вы не можете удалять свои сообщения
Вы не можете добавлять вложения

Перейти:  
Для Мосгорсуда, Роскомнадзора и рекламодателей: mosgorsud-torrent[собачка]yandex.ru
 Вход
ppkBB3cker v.2 © 2008-2014 @ PPK
[ Time : 0.043s | 16 Queries | GZIP : Off ]

cron